找回密码

蓝光电影网

查看: 153|回复: 0

[喜剧] 坏孩子下地狱2 Bad.Kids.of.Crestview.Academy.2017.1080p.AMZN.WEBRip.DDP5.1.x264-NTG 6.65GB

[复制链接]
蓝光币
1022
发表于 2020-2-3 15:57:21 | 显示全部楼层 |阅读模式
坏孩子下天堂2 Bad.Kids.of.Crestview.Academy.2017.1080p.AMZN.WEBRip.DDP5.1.x264-NTG 6.65GB-1.png

译  名 坏孩子下天堂2 / Bad Kids Go 2 Hell / 學院獵殺事务簿
片  名 Bad Kids of Crestview Academy
年  代 2017
产  地 美国
类  别 笑剧 / 行动
语  言 英语
上映日期 2017-01-13(美国)
IMDb评分  6.3/10 from 2499 users
IMDb链接  https://www.imdb.com/title/tt3349578
豆瓣评分 4.5/10 from 64 users
豆瓣链接 https://movie.douban.com/subject/25929963/
片  长 100分钟
导  演 本·布劳德 Ben Browder
编  剧 Barry Wernick / James R. Hallam
主  演 吉娜·格申 Gina Gershon
       西恩·奥斯汀 Sean Astin
       德雷克·贝尔 Drake Bell
       赛米·汉拉缇 Sammi Hanratty
       本·布劳德 Ben Browder
       Alexandra Astin
       卡梅隆·迪恩·斯图尔特 Cameron Deane Stewart
       苏芙·布莱德肖 Sufe Bradshaw
       Sophia Taylor Ali
       比利·布莱尔 Billy Blair
       Susana Gibb
       Marcus DeAnda
       Erika Daly
       马修·弗里亚斯 Matthew Frias
       Robert Johnson


标  签 美国 | 笑剧 | 行动 | 2017 | 暴力 | 血腥 | 校园 | 诡计

简  介  

  这是一部黑色惊悚笑剧片,影片报告了六个Crestview学院的预科班门生,他们都是英国社会精英的后代,生活在富有的家庭。在Crestview学院一个月黑风高的周六下午,他们却被禁锢起来,在八小时内,他们城市遭受一个可怕的意外,直到最初一小我仍然存在。这些被宠坏的富家子弟们搞出了一系列诙和谐疯狂的盘曲。会是Crestview学院著名的鬼魂来赏罚这些坏小子?有一点是必定的,他们爸爸的钱救不了他们。
  1. Video
  2. ID                                       : 1
  3. Format                                   : AVC
  4. Format/Info                              : Advanced Video Codec
  5. Format profile                           : [email protected]
  6. Format settings                          : CABAC / 4 Ref Frames
  7. Format settings, CABAC                   : Yes
  8. Format settings, Reference frames        : 4 frames
  9. Codec ID                                 : V_MPEG4/ISO/AVC
  10. Duration                                 : 1 h 41 min
  11. Bit rate mode                            : Constant
  12. Bit rate                                 : 8 767 kb/s
  13. Nominal bit rate                         : 10 000 kb/s
  14. Width                                    : 1 920 pixels
  15. Height                                   : 1 080 pixels
  16. Display aspect ratio                     : 16:9
  17. Frame rate mode                          : Constant
  18. Frame rate                               : 23.976 (24000/1001) FPS
  19. Color space                              : YUV
  20. Chroma subsampling                       : 4:2:0
  21. Bit depth                                : 8 bits
  22. Scan type                                : Progressive
  23. Bits/(Pixel*Frame)                       : 0.176
  24. Stream size                              : 6.20 GiB (93%)
  25. Default                                  : Yes
  26. Forced                                   : No
  27. Color range                              : Limited
  28. Color primaries                          : BT.709
  29. Transfer characteristics                 : BT.709
  30. Matrix coefficients                      : BT.709

  31. Audio
  32. ID                                       : 2
  33. Format                                   : E-AC-3
  34. Format/Info                              : Enhanced AC-3
  35. Commercial name                          : Dolby Digital Plus
  36. Codec ID                                 : A_EAC3
  37. Duration                                 : 1 h 41 min
  38. Bit rate mode                            : Constant
  39. Bit rate                                 : 640 kb/s
  40. Channel(s)                               : 6 channels
  41. Channel layout                           : L R C LFE Ls Rs
  42. Sampling rate                            : 48.0 kHz
  43. Frame rate                               : 31.250 FPS (1536 SPF)
  44. Compression mode                         : Lossy
  45. Stream size                              : 463 MiB (7%)
  46. Language                                 : English
  47. Service kind                             : Complete Main
  48. Default                                  : Yes
  49. Forced                                   : No

  50. Text #1
  51. ID                                       : 3
  52. Format                                   : UTF-8
  53. Codec ID                                 : S_TEXT/UTF8
  54. Codec ID/Info                            : UTF-8 Plain Text
  55. Duration                                 : 1 h 40 min
  56. Bit rate                                 : 60 b/s
  57. Count of elements                        : 1676
  58. Stream size                              : 44.6 KiB (0%)
  59. Language                                 : English
  60. Default                                  : No
  61. Forced                                   : No

  62. Text #2
  63. ID                                       : 4
  64. Format                                   : UTF-8
  65. Codec ID                                 : S_TEXT/UTF8
  66. Codec ID/Info                            : UTF-8 Plain Text
  67. Duration                                 : 1 h 40 min
  68. Bit rate                                 : 60 b/s
  69. Count of elements                        : 1676
  70. Stream size                              : 44.6 KiB (0%)
  71. Title                                    : SDH
  72. Language                                 : English
  73. Default                                  : No
  74. Forced                                   : No
复制代码

坏孩子下天堂2 Bad.Kids.of.Crestview.Academy.2017.1080p.AMZN.WEBRip.DDP5.1.x264-NTG 6.65GB-2.png 坏孩子下天堂2 Bad.Kids.of.Crestview.Academy.2017.1080p.AMZN.WEBRip.DDP5.1.x264-NTG 6.65GB-3.png 坏孩子下天堂2 Bad.Kids.of.Crestview.Academy.2017.1080p.AMZN.WEBRip.DDP5.1.x264-NTG 6.65GB-4.png






回复

使用道具 举报

懒得打字嘛,点击右侧快捷回复 【右侧内容,后台自定义】
您需要登录后才可以回帖 登录 | 立即加入

本版积分规则

Archiver|小黑屋| 蓝光电影网 |网站地图

Copyright © 2021 Comsenz Inc. Powered by 蓝光电影网

蓝光电影网

本站内容由用户自主分享和转载自互联网,转载目的在于传递更多信息,并不代表本网赞同其观点和对其真实性负责。

如有侵权、违反国家法律政策行为,请联系我们,我们会第一时间及时清除和处理!

举报反馈邮箱:[email protected]

快速回复 返回顶部 返回列表