找回密码

蓝光电影网

查看: 346|回复: 0

[惊悚] 扭曲姐妹/变调姊妹会 Twisted.Sisters.2016.1080p.AMZN.WEBRip.DDP2.0.x264-ABM 7.27GB

[复制链接]
蓝光币
1022
发表于 2020-2-3 16:00:53 | 显示全部楼层 |阅读模式
扭曲姐妹/变调姊妹会 Twisted.Sisters.2016.1080p.AMZN.WEBRip.DDP2.0.x264-ABM 7.27GB-1.png

译  名 扭曲姐妹 / 变调姊妹会(台)
片  名 Twisted Sisters
年  代 2016
产  地 美国
类  别 惊悚
语  言 英语
上映日期 2016-07-21(美国)
IMDb评分  5.0/10 from 271 users
IMDb链接  https://www.imdb.com/title/tt5090750
豆瓣评分 0/10 from 0 users
豆瓣链接 https://movie.douban.com/subject/27073326/
片  长 85分钟
导  演 Devon Downs / Kenny Gage
编  剧 Brian McAuley
主  演 Allie Marshall
       谢拉·麦克康米克 Sierra McCormick
       卡西迪·吉福德 Cassidy Gifford
       Katie Sarife
       Hannah Rose May
       布里吉特·怀特 Bridget White
       乔丹·詹姆斯·史姑娘 Jordan James Smith
       安东尼·德尔·尼格罗 Anthony Del Negro
       Mary Kate Malat
       Brett Lapeyrouse
       J.P. Valenti
       Michael J. Burg
       Megan Easton
       Sara Kapner
       Tara Layne


标  签 美男 | 2016

简  介  

  Following the death of her sister, college freshman Sarah joins her mother's former sorority-Psi Kappa-in an attempt to cope. Presided over by Daisy, the chapter's dazzling president, Psi Kap's are the queens of the campus. Sarah becomes Daisy's favorite pledge and is taken under her wing, allowing her to see how the sorority is run more like a ruthless business than a sisterhood. The girls maintain saintly appearances while promoting cutthroat seduction and destruction behind the scenes. Everything from the student body through administration is controlled with bribes and blackmail and Sarah can't help but watch in horror as her world starts to crumble around her. Is she strong enough to take down Daisy and the house she's built? Or will she come to understand the true meaning of the sorority motto: Psi Kap for life... Psi Kap 'til death!
  1. Video
  2. ID                                       : 1
  3. Format                                   : AVC
  4. Format/Info                              : Advanced Video Codec
  5. Format profile                           : [email protected]
  6. Format settings                          : CABAC / 4 Ref Frames
  7. Format settings, CABAC                   : Yes
  8. Format settings, Reference frames        : 4 frames
  9. Codec ID                                 : V_MPEG4/ISO/AVC
  10. Duration                                 : 1 h 25 min
  11. Bit rate mode                            : Variable
  12. Bit rate                                 : 11.9 Mb/s
  13. Maximum bit rate                         : 15.0 Mb/s
  14. Width                                    : 1 920 pixels
  15. Height                                   : 1 080 pixels
  16. Display aspect ratio                     : 16:9
  17. Frame rate mode                          : Constant
  18. Frame rate                               : 23.976 (24000/1001) FPS
  19. Color space                              : YUV
  20. Chroma subsampling                       : 4:2:0
  21. Bit depth                                : 8 bits
  22. Scan type                                : Progressive
  23. Bits/(Pixel*Frame)                       : 0.240
  24. Stream size                              : 7.14 GiB (98%)
  25. Default                                  : Yes
  26. Forced                                   : No
  27. Color range                              : Limited
  28. Color primaries                          : BT.709
  29. Transfer characteristics                 : BT.709
  30. Matrix coefficients                      : BT.709

  31. Audio
  32. ID                                       : 2
  33. Format                                   : E-AC-3
  34. Format/Info                              : Enhanced AC-3
  35. Commercial name                          : Dolby Digital Plus
  36. Codec ID                                 : A_EAC3
  37. Duration                                 : 1 h 25 min
  38. Bit rate mode                            : Constant
  39. Bit rate                                 : 224 kb/s
  40. Channel(s)                               : 2 channels
  41. Channel layout                           : L R
  42. Sampling rate                            : 48.0 kHz
  43. Frame rate                               : 31.250 FPS (1536 SPF)
  44. Compression mode                         : Lossy
  45. Stream size                              : 137 MiB (2%)
  46. Language                                 : English
  47. Service kind                             : Complete Main
  48. Default                                  : Yes
  49. Forced                                   : No

  50. Text
  51. ID                                       : 3
  52. Format                                   : UTF-8
  53. Codec ID                                 : S_TEXT/UTF8
  54. Codec ID/Info                            : UTF-8 Plain Text
  55. Duration                                 : 1 h 23 min
  56. Bit rate                                 : 87 b/s
  57. Count of elements                        : 1787
  58. Stream size                              : 53.6 KiB (0%)
  59. Title                                    : SDH
  60. Language                                 : English
  61. Default                                  : No
  62. Forced                                   : No
复制代码

扭曲姐妹/变调姊妹会 Twisted.Sisters.2016.1080p.AMZN.WEBRip.DDP2.0.x264-ABM 7.27GB-2.png 扭曲姐妹/变调姊妹会 Twisted.Sisters.2016.1080p.AMZN.WEBRip.DDP2.0.x264-ABM 7.27GB-3.png 扭曲姐妹/变调姊妹会 Twisted.Sisters.2016.1080p.AMZN.WEBRip.DDP2.0.x264-ABM 7.27GB-4.png






回复

使用道具 举报

懒得打字嘛,点击右侧快捷回复 【右侧内容,后台自定义】
您需要登录后才可以回帖 登录 | 立即加入

本版积分规则

Archiver|小黑屋| 蓝光电影网 |网站地图

Copyright © 2021 Comsenz Inc. Powered by 蓝光电影网

蓝光电影网

本站内容由用户自主分享和转载自互联网,转载目的在于传递更多信息,并不代表本网赞同其观点和对其真实性负责。

如有侵权、违反国家法律政策行为,请联系我们,我们会第一时间及时清除和处理!

举报反馈邮箱:[email protected]

快速回复 返回顶部 返回列表