找回密码

蓝光电影网

查看: 273|回复: 0

[恐怖] 我的小妹妹 My.Little.Sister.2016.1080p.AMZN.WEBRip.DDP5.1.x264-monkee 3.24GB

[复制链接]
蓝光币
1020
发表于 2020-2-3 16:01:41 | 显示全部楼层 |阅读模式
我的小妹妹 My.Little.Sister.2016.1080p.AMZN.WEBRip.DDP5.1.x264-monkee 3.24GB-1.png

译  名 我的小妹妹
片  名 My Little Sister
年  代 2016
产  地 美国
类  别 可骇
语  言 英语
上映日期 2016-04-30
IMDb评分  3.2/10 from 162 users
IMDb链接  https://www.imdb.com/title/tt5178348
豆瓣评分 0/10 from 0 users
豆瓣链接 https://movie.douban.com/subject/26985490/
片  长 80分钟
导  演 Maurizio del Piccolo / Roberto del Piccolo
编  剧 Roberto del Piccolo
主  演 Lucia Castellano
       Alberto Corba
       Astrid Di Bon
       Holli Dillon
       Antonio Pauletta
       Sofia Pauly
       Saverio Percudani
       Mattia Rosellini
       David White


简  介  

  When Igor was young, he lost his father because of his little sister. He will grow up trying to find his own way of giving a new face to his past.
  1. Video
  2. ID                                       : 1
  3. Format                                   : AVC
  4. Format/Info                              : Advanced Video Codec
  5. Format profile                           : [email protected]
  6. Format settings                          : CABAC / 4 Ref Frames
  7. Format settings, CABAC                   : Yes
  8. Format settings, Reference frames        : 4 frames
  9. Codec ID                                 : V_MPEG4/ISO/AVC
  10. Duration                                 : 1 h 16 min
  11. Bit rate                                 : 5 457 kb/s
  12. Width                                    : 1 920 pixels
  13. Height                                   : 1 080 pixels
  14. Display aspect ratio                     : 16:9
  15. Frame rate mode                          : Constant
  16. Frame rate                               : 25.000 FPS
  17. Color space                              : YUV
  18. Chroma subsampling                       : 4:2:0
  19. Bit depth                                : 8 bits
  20. Scan type                                : Progressive
  21. Bits/(Pixel*Frame)                       : 0.105
  22. Stream size                              : 2.90 GiB (89%)
  23. Default                                  : Yes
  24. Forced                                   : No
  25. Color range                              : Limited
  26. Color primaries                          : BT.709
  27. Transfer characteristics                 : BT.709
  28. Matrix coefficients                      : BT.709

  29. Audio
  30. ID                                       : 2
  31. Format                                   : E-AC-3
  32. Format/Info                              : Enhanced AC-3
  33. Commercial name                          : Dolby Digital Plus
  34. Codec ID                                 : A_EAC3
  35. Duration                                 : 1 h 16 min
  36. Bit rate mode                            : Constant
  37. Bit rate                                 : 640 kb/s
  38. Channel(s)                               : 6 channels
  39. Channel layout                           : L R C LFE Ls Rs
  40. Sampling rate                            : 48.0 kHz
  41. Frame rate                               : 31.250 FPS (1536 SPF)
  42. Compression mode                         : Lossy
  43. Stream size                              : 348 MiB (10%)
  44. Language                                 : English
  45. Service kind                             : Complete Main
  46. Default                                  : Yes
  47. Forced                                   : No

  48. Text #1
  49. ID                                       : 3
  50. Format                                   : UTF-8
  51. Codec ID                                 : S_TEXT/UTF8
  52. Codec ID/Info                            : UTF-8 Plain Text
  53. Duration                                 : 1 h 12 min
  54. Bit rate                                 : 9 b/s
  55. Count of elements                        : 245
  56. Stream size                              : 5.13 KiB (0%)
  57. Language                                 : English
  58. Default                                  : No
  59. Forced                                   : No

  60. Text #2
  61. ID                                       : 4
  62. Format                                   : UTF-8
  63. Codec ID                                 : S_TEXT/UTF8
  64. Codec ID/Info                            : UTF-8 Plain Text
  65. Duration                                 : 1 h 15 min
  66. Bit rate                                 : 12 b/s
  67. Count of elements                        : 361
  68. Stream size                              : 6.97 KiB (0%)
  69. Title                                    : SDH
  70. Language                                 : English
  71. Default                                  : No
  72. Forced                                   : No
复制代码

我的小妹妹 My.Little.Sister.2016.1080p.AMZN.WEBRip.DDP5.1.x264-monkee 3.24GB-2.png 我的小妹妹 My.Little.Sister.2016.1080p.AMZN.WEBRip.DDP5.1.x264-monkee 3.24GB-3.png 我的小妹妹 My.Little.Sister.2016.1080p.AMZN.WEBRip.DDP5.1.x264-monkee 3.24GB-4.png






回复

使用道具 举报

懒得打字嘛,点击右侧快捷回复 【右侧内容,后台自定义】
您需要登录后才可以回帖 登录 | 立即加入

本版积分规则

Archiver|小黑屋| 蓝光电影网 |网站地图

Copyright © 2021 Comsenz Inc. Powered by 蓝光电影网

蓝光电影网

本站内容由用户自主分享和转载自互联网,转载目的在于传递更多信息,并不代表本网赞同其观点和对其真实性负责。

如有侵权、违反国家法律政策行为,请联系我们,我们会第一时间及时清除和处理!

举报反馈邮箱:[email protected]

快速回复 返回顶部 返回列表