找回密码

蓝光电影网

查看: 241|回复: 0

[喜剧] 贾德·阿帕图:重返舞台 Judd.Apatow.The.Return.2017.1080p.NF.WEBRip.DD5.1.x264-QOQ 1.24GB

[复制链接]
蓝光币
1022
发表于 2020-2-3 16:04:14 | 显示全部楼层 |阅读模式
贾德·阿帕图:重返舞台 Judd.Apatow.The.Return.2017.1080p.NF.WEBRip.DD5.1.x264-QOQ 1.24GB-1.png

译  名 贾德·阿帕图:重返舞台
片  名 Judd Apatow: The Return
年  代 2017
产  地 美国
类  别 笑剧 / 脱口秀
语  言 英语
上映日期 2017-12-12(美国)
IMDb评分  6.2/10 from 1117 users
IMDb链接  https://www.imdb.com/title/tt7738550
豆瓣评分 6.7/10 from 102 users
豆瓣链接 https://movie.douban.com/subject/27604321/
片  长 66分钟
导  演 马库斯·雷波依 Marcus Raboy
编  剧 贾德·阿帕图 Judd Apatow
主  演 贾德·阿帕图 Judd Apatow


标  签 Netflix | Stand-Up | Stand-up | 脱口秀 | 美国 | stand-up | 2017 | 笑剧

简  介  

  Judd Apatow returns to stand-up comedy after 25 years, riffing on living with three women, amusing moments from his career and much more.
  1. Video
  2. ID                                       : 1
  3. Format                                   : AVC
  4. Format/Info                              : Advanced Video Codec
  5. Format profile                           : [email protected]
  6. Format settings                          : CABAC / 3 Ref Frames
  7. Format settings, CABAC                   : Yes
  8. Format settings, Reference frames        : 3 frames
  9. Codec ID                                 : V_MPEG4/ISO/AVC
  10. Duration                                 : 1 h 9 min
  11. Bit rate mode                            : Variable
  12. Bit rate                                 : 2 150 kb/s
  13. Maximum bit rate                         : 3 225 kb/s
  14. Width                                    : 1 920 pixels
  15. Height                                   : 1 080 pixels
  16. Display aspect ratio                     : 16:9
  17. Frame rate mode                          : Constant
  18. Frame rate                               : 23.976 (24000/1001) FPS
  19. Color space                              : YUV
  20. Chroma subsampling                       : 4:2:0
  21. Bit depth                                : 8 bits
  22. Scan type                                : Progressive
  23. Bits/(Pixel*Frame)                       : 0.043
  24. Stream size                              : 1.05 GiB (85%)
  25. Writing library                          : x264 core 148 r2714 2daf636
  26. Encoding settings                        : cabac=1 / ref=3 / deblock=1:0:0 / analyse=0x1:0x111 / me=umh / subme=10 / psy=1 / psy_rd=1.00:0.00 / mixed_ref=1 / me_range=24 / chroma_me=1 / trellis=2 / 8x8dct=0 / cqm=0 / deadzone=21,11 / fast_pskip=1 / chroma_qp_offset=-2 / threads=8 / lookahead_threads=1 / sliced_threads=0 / nr=0 / decimate=1 / interlaced=0 / bluray_compat=0 / stitchable=1 / constrained_intra=0 / bframes=2 / b_pyramid=0 / b_adapt=2 / b_bias=0 / direct=3 / weightb=1 / open_gop=0 / weightp=2 / keyint=48 / keyint_min=25 / scenecut=0 / intra_refresh=0 / rc_lookahead=48 / rc=2pass / mbtree=1 / bitrate=2150 / ratetol=1.0 / qcomp=0.50 / qpmin=6 / qpmax=51 / qpstep=4 / cplxblur=20.0 / qblur=0.5 / vbv_maxrate=3225 / vbv_bufsize=4300 / nal_hrd=vbr / filler=0 / ip_ratio=1.40 / aq=1:1.00
  27. Default                                  : Yes
  28. Forced                                   : No

  29. Audio
  30. ID                                       : 2
  31. Format                                   : AC-3
  32. Format/Info                              : Audio Coding 3
  33. Commercial name                          : Dolby Digital
  34. Codec ID                                 : A_AC3
  35. Duration                                 : 1 h 9 min
  36. Bit rate mode                            : Constant
  37. Bit rate                                 : 384 kb/s
  38. Channel(s)                               : 6 channels
  39. Channel layout                           : L R C LFE Ls Rs
  40. Sampling rate                            : 48.0 kHz
  41. Frame rate                               : 31.250 FPS (1536 SPF)
  42. Compression mode                         : Lossy
  43. Stream size                              : 192 MiB (15%)
  44. Language                                 : English
  45. Service kind                             : Complete Main
  46. Default                                  : Yes
  47. Forced                                   : No

  48. Text #1
  49. ID                                       : 3
  50. Format                                   : UTF-8
  51. Codec ID                                 : S_TEXT/UTF8
  52. Codec ID/Info                            : UTF-8 Plain Text
  53. Duration                                 : 1 h 9 min
  54. Bit rate                                 : 115 b/s
  55. Count of elements                        : 1623
  56. Stream size                              : 58.9 KiB (0%)
  57. Title                                    : SDH
  58. Language                                 : English
  59. Default                                  : No
  60. Forced                                   : No

  61. Text #2
  62. ID                                       : 4
  63. Format                                   : UTF-8
  64. Codec ID                                 : S_TEXT/UTF8
  65. Codec ID/Info                            : UTF-8 Plain Text
  66. Duration                                 : 1 h 9 min
  67. Bit rate                                 : 161 b/s
  68. Count of elements                        : 1334
  69. Stream size                              : 82.3 KiB (0%)
  70. Language                                 : Arabic
  71. Default                                  : No
  72. Forced                                   : No

  73. Text #3
  74. ID                                       : 5
  75. Format                                   : UTF-8
  76. Codec ID                                 : S_TEXT/UTF8
  77. Codec ID/Info                            : UTF-8 Plain Text
  78. Duration                                 : 1 h 9 min
  79. Bit rate                                 : 90 b/s
  80. Count of elements                        : 1336
  81. Stream size                              : 46.2 KiB (0%)
  82. Language                                 : Danish
  83. Default                                  : No
  84. Forced                                   : No

  85. Text #4
  86. ID                                       : 6
  87. Format                                   : UTF-8
  88. Codec ID                                 : S_TEXT/UTF8
  89. Codec ID/Info                            : UTF-8 Plain Text
  90. Duration                                 : 1 h 9 min
  91. Bit rate                                 : 89 b/s
  92. Count of elements                        : 1281
  93. Stream size                              : 45.7 KiB (0%)
  94. Language                                 : German
  95. Default                                  : No
  96. Forced                                   : No

  97. Text #5
  98. ID                                       : 7
  99. Format                                   : UTF-8
  100. Codec ID                                 : S_TEXT/UTF8
  101. Codec ID/Info                            : UTF-8 Plain Text
  102. Duration                                 : 1 h 9 min
  103. Bit rate                                 : 157 b/s
  104. Count of elements                        : 1254
  105. Stream size                              : 80.5 KiB (0%)
  106. Language                                 : Greek
  107. Default                                  : No
  108. Forced                                   : No

  109. Text #6
  110. ID                                       : 8
  111. Format                                   : UTF-8
  112. Codec ID                                 : S_TEXT/UTF8
  113. Codec ID/Info                            : UTF-8 Plain Text
  114. Duration                                 : 1 h 9 min
  115. Bit rate                                 : 87 b/s
  116. Count of elements                        : 1325
  117. Stream size                              : 44.8 KiB (0%)
  118. Language                                 : Spanish
  119. Default                                  : No
  120. Forced                                   : No

  121. Text #7
  122. ID                                       : 9
  123. Format                                   : UTF-8
  124. Codec ID                                 : S_TEXT/UTF8
  125. Codec ID/Info                            : UTF-8 Plain Text
  126. Duration                                 : 1 h 9 min
  127. Bit rate                                 : 94 b/s
  128. Count of elements                        : 1322
  129. Stream size                              : 48.0 KiB (0%)
  130. Language                                 : Spanish
  131. Default                                  : No
  132. Forced                                   : No

  133. Text #8
  134. ID                                       : 10
  135. Format                                   : UTF-8
  136. Codec ID                                 : S_TEXT/UTF8
  137. Codec ID/Info                            : UTF-8 Plain Text
  138. Duration                                 : 1 h 9 min
  139. Bit rate                                 : 86 b/s
  140. Count of elements                        : 930
  141. Stream size                              : 44.0 KiB (0%)
  142. Language                                 : Finnish
  143. Default                                  : No
  144. Forced                                   : No

  145. Text #9
  146. ID                                       : 11
  147. Format                                   : UTF-8
  148. Codec ID                                 : S_TEXT/UTF8
  149. Codec ID/Info                            : UTF-8 Plain Text
  150. Duration                                 : 1 h 9 min
  151. Bit rate                                 : 83 b/s
  152. Count of elements                        : 1294
  153. Stream size                              : 42.4 KiB (0%)
  154. Language                                 : French
  155. Default                                  : No
  156. Forced                                   : No

  157. Text #10
  158. ID                                       : 12
  159. Format                                   : UTF-8
  160. Codec ID                                 : S_TEXT/UTF8
  161. Codec ID/Info                            : UTF-8 Plain Text
  162. Duration                                 : 1 h 9 min
  163. Bit rate                                 : 163 b/s
  164. Count of elements                        : 1193
  165. Stream size                              : 83.5 KiB (0%)
  166. Language                                 : Hebrew
  167. Default                                  : No
  168. Forced                                   : No

  169. Text #11
  170. ID                                       : 13
  171. Format                                   : UTF-8
  172. Codec ID                                 : S_TEXT/UTF8
  173. Codec ID/Info                            : UTF-8 Plain Text
  174. Duration                                 : 1 h 9 min
  175. Bit rate                                 : 88 b/s
  176. Count of elements                        : 1233
  177. Stream size                              : 45.0 KiB (0%)
  178. Language                                 : Italian
  179. Default                                  : No
  180. Forced                                   : No

  181. Text #12
  182. ID                                       : 14
  183. Format                                   : UTF-8
  184. Codec ID                                 : S_TEXT/UTF8
  185. Codec ID/Info                            : UTF-8 Plain Text
  186. Duration                                 : 1 h 9 min
  187. Bit rate                                 : 77 b/s
  188. Count of elements                        : 1193
  189. Stream size                              : 39.3 KiB (0%)
  190. Language                                 : Japanese
  191. Default                                  : No
  192. Forced                                   : No

  193. Text #13
  194. ID                                       : 15
  195. Format                                   : UTF-8
  196. Codec ID                                 : S_TEXT/UTF8
  197. Codec ID/Info                            : UTF-8 Plain Text
  198. Duration                                 : 1 h 9 min
  199. Bit rate                                 : 102 b/s
  200. Count of elements                        : 1335
  201. Stream size                              : 52.2 KiB (0%)
  202. Language                                 : Korean
  203. Default                                  : No
  204. Forced                                   : No

  205. Text #14
  206. ID                                       : 16
  207. Format                                   : UTF-8
  208. Codec ID                                 : S_TEXT/UTF8
  209. Codec ID/Info                            : UTF-8 Plain Text
  210. Duration                                 : 1 h 9 min
  211. Bit rate                                 : 86 b/s
  212. Count of elements                        : 1169
  213. Stream size                              : 43.8 KiB (0%)
  214. Language                                 : Norwegian Bokmal
  215. Default                                  : No
  216. Forced                                   : No

  217. Text #15
  218. ID                                       : 17
  219. Format                                   : UTF-8
  220. Codec ID                                 : S_TEXT/UTF8
  221. Codec ID/Info                            : UTF-8 Plain Text
  222. Duration                                 : 1 h 9 min
  223. Bit rate                                 : 85 b/s
  224. Count of elements                        : 1119
  225. Stream size                              : 43.4 KiB (0%)
  226. Language                                 : Dutch
  227. Default                                  : No
  228. Forced                                   : No

  229. Text #16
  230. ID                                       : 18
  231. Format                                   : UTF-8
  232. Codec ID                                 : S_TEXT/UTF8
  233. Codec ID/Info                            : UTF-8 Plain Text
  234. Duration                                 : 1 h 9 min
  235. Bit rate                                 : 83 b/s
  236. Count of elements                        : 1252
  237. Stream size                              : 42.7 KiB (0%)
  238. Language                                 : Polish
  239. Default                                  : No
  240. Forced                                   : No

  241. Text #17
  242. ID                                       : 19
  243. Format                                   : UTF-8
  244. Codec ID                                 : S_TEXT/UTF8
  245. Codec ID/Info                            : UTF-8 Plain Text
  246. Duration                                 : 1 h 9 min
  247. Bit rate                                 : 98 b/s
  248. Count of elements                        : 1278
  249. Stream size                              : 50.5 KiB (0%)
  250. Language                                 : Portuguese
  251. Default                                  : No
  252. Forced                                   : No

  253. Text #18
  254. ID                                       : 20
  255. Format                                   : UTF-8
  256. Codec ID                                 : S_TEXT/UTF8
  257. Codec ID/Info                            : UTF-8 Plain Text
  258. Duration                                 : 1 h 9 min
  259. Bit rate                                 : 80 b/s
  260. Count of elements                        : 1329
  261. Stream size                              : 41.1 KiB (0%)
  262. Title                                    : Brazilian
  263. Language                                 : Portuguese
  264. Default                                  : No
  265. Forced                                   : No

  266. Text #19
  267. ID                                       : 21
  268. Format                                   : UTF-8
  269. Codec ID                                 : S_TEXT/UTF8
  270. Codec ID/Info                            : UTF-8 Plain Text
  271. Duration                                 : 1 h 9 min
  272. Bit rate                                 : 95 b/s
  273. Count of elements                        : 1337
  274. Stream size                              : 48.6 KiB (0%)
  275. Language                                 : Romanian
  276. Default                                  : No
  277. Forced                                   : No

  278. Text #20
  279. ID                                       : 22
  280. Format                                   : UTF-8
  281. Codec ID                                 : S_TEXT/UTF8
  282. Codec ID/Info                            : UTF-8 Plain Text
  283. Duration                                 : 1 h 9 min
  284. Bit rate                                 : 88 b/s
  285. Count of elements                        : 1065
  286. Stream size                              : 45.0 KiB (0%)
  287. Language                                 : Swedish
  288. Default                                  : No
  289. Forced                                   : No

  290. Text #21
  291. ID                                       : 23
  292. Format                                   : UTF-8
  293. Codec ID                                 : S_TEXT/UTF8
  294. Codec ID/Info                            : UTF-8 Plain Text
  295. Duration                                 : 1 h 9 min
  296. Bit rate                                 : 239 b/s
  297. Count of elements                        : 1336
  298. Stream size                              : 122 KiB (0%)
  299. Language                                 : Thai
  300. Default                                  : No
  301. Forced                                   : No

  302. Text #22
  303. ID                                       : 24
  304. Format                                   : UTF-8
  305. Codec ID                                 : S_TEXT/UTF8
  306. Codec ID/Info                            : UTF-8 Plain Text
  307. Duration                                 : 1 h 9 min
  308. Bit rate                                 : 89 b/s
  309. Count of elements                        : 1282
  310. Stream size                              : 45.4 KiB (0%)
  311. Language                                 : Turkish
  312. Default                                  : No
  313. Forced                                   : No

  314. Text #23
  315. ID                                       : 25
  316. Format                                   : UTF-8
  317. Codec ID                                 : S_TEXT/UTF8
  318. Codec ID/Info                            : UTF-8 Plain Text
  319. Duration                                 : 1 h 9 min
  320. Bit rate                                 : 92 b/s
  321. Count of elements                        : 1337
  322. Stream size                              : 46.9 KiB (0%)
  323. Title                                    : Simplified
  324. Language                                 : Chinese
  325. Default                                  : No
  326. Forced                                   : No

  327. Text #24
  328. ID                                       : 26
  329. Format                                   : UTF-8
  330. Codec ID                                 : S_TEXT/UTF8
  331. Codec ID/Info                            : UTF-8 Plain Text
  332. Duration                                 : 1 h 9 min
  333. Bit rate                                 : 75 b/s
  334. Count of elements                        : 1337
  335. Stream size                              : 38.4 KiB (0%)
  336. Title                                    : Traditional
  337. Language                                 : Chinese
  338. Default                                  : No
  339. Forced                                   : No
复制代码

贾德·阿帕图:重返舞台 Judd.Apatow.The.Return.2017.1080p.NF.WEBRip.DD5.1.x264-QOQ 1.24GB-2.png 贾德·阿帕图:重返舞台 Judd.Apatow.The.Return.2017.1080p.NF.WEBRip.DD5.1.x264-QOQ 1.24GB-3.png 贾德·阿帕图:重返舞台 Judd.Apatow.The.Return.2017.1080p.NF.WEBRip.DD5.1.x264-QOQ 1.24GB-4.png 贾德·阿帕图:重返舞台 Judd.Apatow.The.Return.2017.1080p.NF.WEBRip.DD5.1.x264-QOQ 1.24GB-5.png 贾德·阿帕图:重返舞台 Judd.Apatow.The.Return.2017.1080p.NF.WEBRip.DD5.1.x264-QOQ 1.24GB-6.png 贾德·阿帕图:重返舞台 Judd.Apatow.The.Return.2017.1080p.NF.WEBRip.DD5.1.x264-QOQ 1.24GB-1.png






回复

使用道具 举报

懒得打字嘛,点击右侧快捷回复 【右侧内容,后台自定义】
您需要登录后才可以回帖 登录 | 立即加入

本版积分规则

Archiver|小黑屋| 蓝光电影网 |网站地图

Copyright © 2021 Comsenz Inc. Powered by 蓝光电影网

蓝光电影网

本站内容由用户自主分享和转载自互联网,转载目的在于传递更多信息,并不代表本网赞同其观点和对其真实性负责。

如有侵权、违反国家法律政策行为,请联系我们,我们会第一时间及时清除和处理!

举报反馈邮箱:[email protected]

快速回复 返回顶部 返回列表