找回密码

蓝光电影网

查看: 409|回复: 1

[喜剧] 黄阿丽:小眼镜蛇 Ali.Wong.Baby.Cobra.2016.1080p.WEBRip.x264-JAWN 2.94GB

[复制链接]
蓝光币
886
发表于 2020-2-3 16:05:26 | 显示全部楼层 |阅读模式
黄阿丽:小眼镜蛇 Ali.Wong.Baby.Cobra.2016.1080p.WEBRip.x264-JAWN 2.94GB-1.png

译  名 黄阿丽:小眼镜蛇
片  名 Ali Wong: Baby Cobra
年  代 2016
产  地 美国
类  别 笑剧
语  言 英语
上映日期 2016-05-05(美国)
IMDb评分  7.5/10 from 5073 users
IMDb链接  https://www.imdb.com/title/tt5066574
豆瓣评分 8.7/10 from 9630 users
豆瓣链接 https://movie.douban.com/subject/26772763/
片  长 60分钟
导  演 杰伊·卡拉斯 Jay Karas
编  剧 黄阿丽 Ali Wong
主  演 黄阿丽 Ali Wong


标  签 脱口秀 | 美国 | 笑剧 | Netflix | 女性 | 2016 | Stand-Up | Comedy

简  介  

  Ali Wong's stand up special delves into her sexual adventures, hoarding, the rocky road to pregnancy, and why feminism is terrible.
  1. Video
  2. ID                                       : 2
  3. Format                                   : AVC
  4. Format/Info                              : Advanced Video Codec
  5. Format profile                           : [email protected]
  6. Format settings                          : CABAC / 4 Ref Frames
  7. Format settings, CABAC                   : Yes
  8. Format settings, Reference frames        : 4 frames
  9. Codec ID                                 : V_MPEG4/ISO/AVC
  10. Duration                                 : 1 h 0 min
  11. Bit rate                                 : 6 860 kb/s
  12. Width                                    : 1 920 pixels
  13. Height                                   : 1 080 pixels
  14. Display aspect ratio                     : 16:9
  15. Frame rate mode                          : Constant
  16. Frame rate                               : 23.976 (24000/1001) FPS
  17. Color space                              : YUV
  18. Chroma subsampling                       : 4:2:0
  19. Bit depth                                : 8 bits
  20. Scan type                                : Progressive
  21. Bits/(Pixel*Frame)                       : 0.138
  22. Stream size                              : 2.88 GiB (98%)
  23. Writing library                          : x264 core 150 r2833 df79067
  24. Encoding settings                        : cabac=1 / ref=4 / deblock=1:-3:-3 / analyse=0x3:0x133 / me=umh / subme=9 / psy=1 / psy_rd=1.00:0.00 / mixed_ref=1 / me_range=16 / chroma_me=1 / trellis=2 / 8x8dct=1 / cqm=0 / deadzone=21,11 / fast_pskip=1 / chroma_qp_offset=-2 / threads=12 / lookahead_threads=1 / sliced_threads=0 / nr=0 / decimate=1 / interlaced=0 / bluray_compat=0 / constrained_intra=0 / bframes=3 / b_pyramid=2 / b_adapt=2 / b_bias=0 / direct=3 / weightb=1 / open_gop=0 / weightp=2 / keyint=240 / keyint_min=24 / scenecut=40 / intra_refresh=0 / rc_lookahead=60 / rc=crf / mbtree=1 / crf=17.0 / qcomp=0.60 / qpmin=0 / qpmax=69 / qpstep=4 / ip_ratio=1.40 / aq=1:1.00
  25. Language                                 : English
  26. Default                                  : Yes
  27. Forced                                   : No

  28. Audio
  29. ID                                       : 1
  30. Format                                   : E-AC-3
  31. Format/Info                              : Enhanced AC-3
  32. Commercial name                          : Dolby Digital Plus
  33. Codec ID                                 : A_EAC3
  34. Duration                                 : 1 h 0 min
  35. Bit rate mode                            : Constant
  36. Bit rate                                 : 128 kb/s
  37. Channel(s)                               : 2 channels
  38. Channel layout                           : L R
  39. Sampling rate                            : 48.0 kHz
  40. Frame rate                               : 31.250 FPS (1536 SPF)
  41. Compression mode                         : Lossy
  42. Stream size                              : 55.1 MiB (2%)
  43. Language                                 : English
  44. Service kind                             : Complete Main
  45. Default                                  : Yes
  46. Forced                                   : No

  47. Text #1
  48. ID                                       : 3
  49. Format                                   : UTF-8
  50. Codec ID                                 : S_TEXT/UTF8
  51. Codec ID/Info                            : UTF-8 Plain Text
  52. Duration                                 : 58 min 49 s
  53. Bit rate                                 : 87 b/s
  54. Count of elements                        : 918
  55. Stream size                              : 37.8 KiB (0%)
  56. Title                                    : English
  57. Language                                 : English
  58. Default                                  : No
  59. Forced                                   : No

  60. Text #2
  61. ID                                       : 4
  62. Format                                   : UTF-8
  63. Codec ID                                 : S_TEXT/UTF8
  64. Codec ID/Info                            : UTF-8 Plain Text
  65. Duration                                 : 58 min 53 s
  66. Bit rate                                 : 93 b/s
  67. Count of elements                        : 1022
  68. Stream size                              : 40.2 KiB (0%)
  69. Title                                    : English SDH
  70. Language                                 : English
  71. Default                                  : No
  72. Forced                                   : No
复制代码

黄阿丽:小眼镜蛇 Ali.Wong.Baby.Cobra.2016.1080p.WEBRip.x264-JAWN 2.94GB-2.png






回复

使用道具 举报

懒得打字嘛,点击右侧快捷回复 【右侧内容,后台自定义】
您需要登录后才可以回帖 登录 | 立即加入

本版积分规则

Archiver|小黑屋| 蓝光电影网 |网站地图

Copyright © 2021 Comsenz Inc. Powered by 蓝光电影网

蓝光电影网

本站内容由用户自主分享和转载自互联网,转载目的在于传递更多信息,并不代表本网赞同其观点和对其真实性负责。

如有侵权、违反国家法律政策行为,请联系我们,我们会第一时间及时清除和处理!

举报反馈邮箱:[email protected]

快速回复 返回顶部 返回列表