找回密码

蓝光电影网

查看: 192|回复: 0

[剧情] 对不起我们错过了你/对不起错过你 Sorry.We.Missed.You.2019.1080p.WEB-DL.DD5.1.H264-FGT 3.83GB

[复制链接]
蓝光币
953
发表于 2020-2-4 11:24:40 | 显示全部楼层 |阅读模式
对不起我们错过了你/对不起错过你 Sorry.We.Missed.You.2019.1080p.WEB-DL.DD5.1.H264-FGT 3.83GB-1.png

译  名 对不起,我们错过了你 / 对不起,错过你(港) / 抱歉我们错过你了(台)
片  名 Sorry We Missed You
年  代 2019
产  地 英国 / 法国 / 比利时
类  别 剧情
语  言 英语
上映日期 2019-05-16(戛纳电影节) / 2019-11-01(英国)
IMDb评分  7.7/10 from 4994 users
IMDb链接  https://www.imdb.com/title/tt8359816
豆瓣评分 8.2/10 from 2898 users
豆瓣链接 https://movie.douban.com/subject/30209084/
片  长 100分钟(戛纳电影节)
导  演 肯·洛奇 Ken Loach
编  剧 保罗·拉弗蒂 Paul Laverty
主  演 克里斯·希钦 Kris Hitchen
       瑞斯·斯通 Rhys Stone
       凯蒂·普洛克特  Katie Proctor
       哈瑞特·构斯特 Harriet Ghost
       Debbie Honeywood
       Mark Birch
       Ross Brewster
       Mark Burns
       Alfie Dobson
       Linda E Greenwood
       Nikki Marshall
       Charlie Richmond
       Jack Berry


标  签 英国 | 2019 | 肯·洛奇 | 剧情 | 人生 | 戛纳电影节 | 戛纳 | KenLoach

简  介  

  英国大师肯·洛奇平生用镜头为底层呐喊,这位英国大师的新片《对不起,我们错过了你》仍然关注底层生活,电影报告一个失意的送货司机和他妻子,只能找一些零工大概半夜倒班的工作委曲过活,由于找不到稳定工作被逼到领会体的边沿。影片首要脚色全数启用非职业演员,是今年最值得期待的现实主义电影之一。

获奖情况  

  第72届戛纳电影节(2019)
  主比赛单元 金棕榈奖(提名) 肯·洛奇

  第73届英国电影学院奖(2020)
  电影奖 最好英国影片(提名)

  第22届英国自力电影奖(2019)
  最好编剧(提名) 保罗·拉弗蒂
  最好男配角(提名) 克里斯·希钦
  1. Video
  2. ID                                       : 1
  3. Format                                   : AVC
  4. Format/Info                              : Advanced Video Codec
  5. Format profile                           : [email protected]
  6. Format settings                          : CABAC / 4 Ref Frames
  7. Format settings, CABAC                   : Yes
  8. Format settings, Reference frames        : 4 frames
  9. Codec ID                                 : V_MPEG4/ISO/AVC
  10. Duration                                 : 1 h 41 min
  11. Bit rate                                 : 5 015 kb/s
  12. Width                                    : 1 918 pixels
  13. Height                                   : 1 038 pixels
  14. Display aspect ratio                     : 1.85:1
  15. Frame rate mode                          : Constant
  16. Frame rate                               : 24.000 FPS
  17. Color space                              : YUV
  18. Chroma subsampling                       : 4:2:0
  19. Bit depth                                : 8 bits
  20. Scan type                                : Progressive
  21. Bits/(Pixel*Frame)                       : 0.105
  22. Stream size                              : 3.56 GiB (93%)
  23. Title                                    : Sorry.We.Missed.You.2019.1080p.WEB-DL.DD5.1.H264-FGT
  24. Language                                 : English
  25. Default                                  : Yes
  26. Forced                                   : No
  27. Color range                              : Limited
  28. Color primaries                          : BT.709
  29. Transfer characteristics                 : BT.709
  30. Matrix coefficients                      : BT.709

  31. Audio
  32. ID                                       : 2
  33. Format                                   : AC-3
  34. Format/Info                              : Audio Coding 3
  35. Commercial name                          : Dolby Digital
  36. Codec ID                                 : A_AC3
  37. Duration                                 : 1 h 41 min
  38. Bit rate mode                            : Constant
  39. Bit rate                                 : 384 kb/s
  40. Channel(s)                               : 6 channels
  41. Channel layout                           : L R C LFE Ls Rs
  42. Sampling rate                            : 48.0 kHz
  43. Frame rate                               : 31.250 FPS (1536 SPF)
  44. Bit depth                                : 16 bits
  45. Compression mode                         : Lossy
  46. Stream size                              : 279 MiB (7%)
  47. Title                                    : Sorry.We.Missed.You.2019.1080p.WEB-DL.DD5.1.H264-FGT
  48. Language                                 : English
  49. Service kind                             : Complete Main
  50. Default                                  : Yes
  51. Forced                                   : No

  52. Menu
  53. 00:00:00.000                             : en:1
  54. 00:03:00.583                             : en:2
  55. 00:06:16.541                             : en:3
  56. 00:34:49.041                             : en:4
  57. 01:13:15.248                             : en:5
  58. 01:28:52.830                             : en:6
  59. 01:39:39.496                             : en:7
复制代码

对不起我们错过了你/对不起错过你 Sorry.We.Missed.You.2019.1080p.WEB-DL.DD5.1.H264-FGT 3.83GB-2.png 对不起我们错过了你/对不起错过你 Sorry.We.Missed.You.2019.1080p.WEB-DL.DD5.1.H264-FGT 3.83GB-3.png 对不起我们错过了你/对不起错过你 Sorry.We.Missed.You.2019.1080p.WEB-DL.DD5.1.H264-FGT 3.83GB-4.png






回复

使用道具 举报

懒得打字嘛,点击右侧快捷回复 【右侧内容,后台自定义】
您需要登录后才可以回帖 登录 | 立即加入

本版积分规则

Archiver|小黑屋| 蓝光电影网 |网站地图

Copyright © 2021 Comsenz Inc. Powered by 蓝光电影网

蓝光电影网

本站内容由用户自主分享和转载自互联网,转载目的在于传递更多信息,并不代表本网赞同其观点和对其真实性负责。

如有侵权、违反国家法律政策行为,请联系我们,我们会第一时间及时清除和处理!

举报反馈邮箱:[email protected]

快速回复 返回顶部 返回列表