找回密码

蓝光电影网

查看: 505|回复: 1

[剧情] 富江 Tomie.1999.JAPANESE.1080p.WEB-DL.AAC2.0.H264-MooMa 3.32GB

[复制链接]
蓝光币
886
发表于 2020-2-4 11:27:53 | 显示全部楼层 |阅读模式
富江 Tomie.1999.JAPANESE.1080p.WEB-DL.AAC2.0.H264-MooMa 3.32GB-1.png

译  名 Tomie
片  名 富江
年  代 1999
产  地 日本
类  别 剧情 / 惊悚 / 可骇 / 奇异
语  言 日语
上映日期 1999-03-06
IMDb评分  5.2/10 from 1512 users
IMDb链接  https://www.imdb.com/title/tt0240119
豆瓣评分 5.6/10 from 2062 users
豆瓣链接 https://movie.douban.com/subject/1308591/
片  长 95 分钟
导  演 及川中
编  剧 及川中 / 伊藤潤二(原作)
主  演 中村麻美
       菅野美穂
       洞口依子
       田口トモロヲ
       草泽康太
       留美
       水橋研二
       温水洋一
       鈴木一功
       山上賢治
       梶原阿貴
       伊藤潤二


标  签 可骇 | 日本 | 伊藤润二 | 富江 | 日本电影 | 惊悚 | 可骇片 | 菅野美穗

简  介  

  自愿成为摄影师的泉泽月子(中村麻美 饰)3年曾遭受一场车祸,在此以后她便得了失眠症,而且没法回忆起车祸之前发生的事。为了摆脱困扰,月子向精神科医生細野辰子(洞口依子 饰)乞助。经过催眠疗法,月子无认识说出了“富江”这个名字。未几,刑警原田省二(田口トモロヲ 饰)造访细野,由于他正在观察的奥秘女子富江(菅野美穂 饰)与细野和月子都有着千丝万缕的关系。与此同时,月子公寓的楼下搬来一个行迹诡秘的男人,与他同来的还有一颗具有生命而且延续发展的头颅。月子尘封的噩梦渐渐被揭开……
  本片按照日本著名可骇漫画家伊藤润二的同名系列漫画改编。
  1. Video
  2. ID                                       : 1
  3. Format                                   : AVC
  4. Format/Info                              : Advanced Video Codec
  5. Format profile                           : [email protected]
  6. Format settings                          : CABAC / 4 Ref Frames
  7. Format settings, CABAC                   : Yes
  8. Format settings, Reference frames        : 4 frames
  9. Codec ID                                 : V_MPEG4/ISO/AVC
  10. Duration                                 : 1 h 35 min
  11. Bit rate                                 : 4 843 kb/s
  12. Width                                    : 1 912 pixels
  13. Height                                   : 1 032 pixels
  14. Display aspect ratio                     : 1.85:1
  15. Frame rate mode                          : Constant
  16. Frame rate                               : 23.976 (23976/1000) FPS
  17. Color space                              : YUV
  18. Chroma subsampling                       : 4:2:0
  19. Bit depth                                : 8 bits
  20. Scan type                                : Progressive
  21. Bits/(Pixel*Frame)                       : 0.102
  22. Stream size                              : 3.21 GiB (97%)
  23. Language                                 : English
  24. Default                                  : Yes
  25. Forced                                   : No
  26. Color range                              : Limited
  27. Color primaries                          : BT.709
  28. Transfer characteristics                 : BT.709
  29. Matrix coefficients                      : BT.709

  30. Audio
  31. ID                                       : 2
  32. Format                                   : AAC LC
  33. Format/Info                              : Advanced Audio Codec Low Complexity
  34. Codec ID                                 : A_AAC-2
  35. Duration                                 : 1 h 35 min
  36. Bit rate                                 : 154 kb/s
  37. Channel(s)                               : 2 channels
  38. Channel layout                           : L R
  39. Sampling rate                            : 48.0 kHz
  40. Frame rate                               : 46.875 FPS (1024 SPF)
  41. Compression mode                         : Lossy
  42. Stream size                              : 105 MiB (3%)
  43. Language                                 : Japanese
  44. Default                                  : Yes
  45. Forced                                   : No

  46. Text
  47. ID                                       : 3
  48. Format                                   : UTF-8
  49. Codec ID                                 : S_TEXT/UTF8
  50. Codec ID/Info                            : UTF-8 Plain Text
  51. Duration                                 : 1 h 27 min
  52. Bit rate                                 : 26 b/s
  53. Count of elements                        : 686
  54. Stream size                              : 16.9 KiB (0%)
  55. Language                                 : English
  56. Default                                  : Yes
  57. Forced                                   : No
复制代码

富江 Tomie.1999.JAPANESE.1080p.WEB-DL.AAC2.0.H264-MooMa 3.32GB-2.png 富江 Tomie.1999.JAPANESE.1080p.WEB-DL.AAC2.0.H264-MooMa 3.32GB-3.png 富江 Tomie.1999.JAPANESE.1080p.WEB-DL.AAC2.0.H264-MooMa 3.32GB-4.png






回复

使用道具 举报

懒得打字嘛,点击右侧快捷回复 【右侧内容,后台自定义】
您需要登录后才可以回帖 登录 | 立即加入

本版积分规则

Archiver|小黑屋| 蓝光电影网 |网站地图

Copyright © 2021 Comsenz Inc. Powered by 蓝光电影网

蓝光电影网

本站内容由用户自主分享和转载自互联网,转载目的在于传递更多信息,并不代表本网赞同其观点和对其真实性负责。

如有侵权、违反国家法律政策行为,请联系我们,我们会第一时间及时清除和处理!

举报反馈邮箱:[email protected]

快速回复 返回顶部 返回列表