找回密码

蓝光电影网

查看: 315|回复: 0

[惊悚] 穿过阴影 Through.The.Shadow.2015.PORTUGUESE.ENSUBBED.1080p.WEB-DL.DD5.1.H264-MooMa 4.06GB

[复制链接]
蓝光币
1022
发表于 2020-2-4 11:29:40 | 显示全部楼层 |阅读模式
穿过阴影 Through.The.Shadow.2015.PORTUGUESE.ENSUBBED.1080p.WEB-DL.DD5.1.H264-MooMa 4.06GB-1.png

译  名 穿过阴影 / Through The Shadow / 阴影
片  名 Através da Sombra
年  代 2015
产  地 巴西
类  别 惊悚
语  言 葡萄牙语
上映日期 2015-11-02(圣保罗国际电影节)
IMDb评分  5.1/10 from 132 users
IMDb链接  https://www.imdb.com/title/tt4690052
豆瓣评分 0/10 from 0 users
豆瓣链接 https://movie.douban.com/subject/26800183/
片  长 105分钟
导  演 小沃尔特·利马 Walter Lima Jr.
编  剧 小沃尔特·利马 Walter Lima Jr. / 亨利·詹姆斯 Henry James
主  演 Virginia Cavendish
       Ana Lúcia Torre
       Mel Maia
       Dandara Mariana
       Domingos Montagner


标  签 巴西 | 悬疑 | 2016 | 改编 | SIFF | 2015 | 阿飘不甘孤单系列 | 葡语片

简  介  

  按照亨利·詹姆斯著名的悬疑小说《螺丝在拧紧》(The Turn of the Screw)改编,报告郊外某咖啡庄园仆人已逝,留下一对尚幼的后代。孩子的舅舅聘请了一位女家庭教师。她发现两个孩子非常诡异,自己也接连看到鬼的出现,到最初她也分不清一切是设想还是实在发生的。
  1. Video
  2. ID                                       : 1
  3. Format                                   : AVC
  4. Format/Info                              : Advanced Video Codec
  5. Format profile                           : [email protected]
  6. Format settings                          : CABAC / 4 Ref Frames
  7. Format settings, CABAC                   : Yes
  8. Format settings, Reference frames        : 4 frames
  9. Codec ID                                 : V_MPEG4/ISO/AVC
  10. Duration                                 : 1 h 45 min
  11. Bit rate                                 : 5 105 kb/s
  12. Width                                    : 1 912 pixels
  13. Height                                   : 1 032 pixels
  14. Display aspect ratio                     : 1.85:1
  15. Frame rate mode                          : Constant
  16. Frame rate                               : 24.000 FPS
  17. Color space                              : YUV
  18. Chroma subsampling                       : 4:2:0
  19. Bit depth                                : 8 bits
  20. Scan type                                : Progressive
  21. Bits/(Pixel*Frame)                       : 0.108
  22. Stream size                              : 3.77 GiB (93%)
  23. Language                                 : English
  24. Default                                  : Yes
  25. Forced                                   : No
  26. Color range                              : Limited
  27. Color primaries                          : BT.709
  28. Transfer characteristics                 : BT.709
  29. Matrix coefficients                      : BT.709

  30. Audio
  31. ID                                       : 2
  32. Format                                   : AC-3
  33. Format/Info                              : Audio Coding 3
  34. Commercial name                          : Dolby Digital
  35. Codec ID                                 : A_AC3
  36. Duration                                 : 1 h 45 min
  37. Bit rate mode                            : Constant
  38. Bit rate                                 : 384 kb/s
  39. Channel(s)                               : 6 channels
  40. Channel layout                           : L R C LFE Ls Rs
  41. Sampling rate                            : 48.0 kHz
  42. Frame rate                               : 31.250 FPS (1536 SPF)
  43. Bit depth                                : 16 bits
  44. Compression mode                         : Lossy
  45. Stream size                              : 291 MiB (7%)
  46. Language                                 : Portuguese
  47. Service kind                             : Complete Main
  48. Default                                  : Yes
  49. Forced                                   : No

  50. Menu
  51. 00:00:00.000                             : en:1
  52. 00:08:34.541                             : en:2
  53. 00:19:17.332                             : en:3
  54. 00:31:33.372                             : en:4
  55. 00:51:17.997                             : en:5
  56. 00:59:31.788                             : en:6
  57. 01:08:01.913                             : en:7
  58. 01:15:33.288                             : en:8
  59. 01:22:36.204                             : en:9
  60. 01:34:53.495                             : en:10
复制代码

穿过阴影 Through.The.Shadow.2015.PORTUGUESE.ENSUBBED.1080p.WEB-DL.DD5.1.H264-MooMa 4.06GB-2.png 穿过阴影 Through.The.Shadow.2015.PORTUGUESE.ENSUBBED.1080p.WEB-DL.DD5.1.H264-MooMa 4.06GB-2.png 穿过阴影 Through.The.Shadow.2015.PORTUGUESE.ENSUBBED.1080p.WEB-DL.DD5.1.H264-MooMa 4.06GB-4.png






回复

使用道具 举报

懒得打字嘛,点击右侧快捷回复 【右侧内容,后台自定义】
您需要登录后才可以回帖 登录 | 立即加入

本版积分规则

Archiver|小黑屋| 蓝光电影网 |网站地图

Copyright © 2021 Comsenz Inc. Powered by 蓝光电影网

蓝光电影网

本站内容由用户自主分享和转载自互联网,转载目的在于传递更多信息,并不代表本网赞同其观点和对其真实性负责。

如有侵权、违反国家法律政策行为,请联系我们,我们会第一时间及时清除和处理!

举报反馈邮箱:[email protected]

快速回复 返回顶部 返回列表