找回密码

蓝光电影网

查看: 508|回复: 0

[恐怖] 重回血腥死亡营/沉睡野营地5 Return.to.Sleepaway.Camp.2008.1080p.WEB-DL.DD5.1.H264-MooMa 3.41GB

[复制链接]
蓝光币
1022
发表于 2020-2-4 11:30:39 | 显示全部楼层 |阅读模式
重回血腥灭亡营/沉睡野营地5 Return.to.Sleepaway.Camp.2008.1080p.WEB-DL.DD5.1.H264-MooMa 3.41GB-1.png

译  名 重回血腥灭亡营 / 沉睡野营地5 / 血腥灭亡营5
片  名 Return to Sleepaway Camp
年  代 2008
产  地 美国
类  别 笑剧 / 可骇
语  言 英语
上映日期 2008-11-04
IMDb评分  4.2/10 from 3536 users
IMDb链接  https://www.imdb.com/title/tt0382943
豆瓣评分 5.4/10 from 128 users
豆瓣链接 https://movie.douban.com/subject/1506828/
片  长 USA: 86 分钟
导  演 Robert Hiltzik
主  演 Vincent Pastore
       Jonathan Tiersten


标  签 美国 | 可骇 | 我看过的英语电影 | 我看过的电影 | 我看过的可骇电影 | 可骇电影 | 血腥 | 美国电影

简  介  

  如平常,很多孩童们都聚居在Manabe营里度暑假。可是这个暑假,营里地工作职员获得地人为并不理想。营主弗兰克把大大都地好处都戴进自己地口袋里。终究,希奇地工作发生了,孩童们和工作职员一个一个渐渐失落。而且他们地尸身酿成僵尸!罗尼是一位在那边工作差不多有20年地职员,他想起20多年前,已经在另一个营里发生地可骇事务。但它们能否有连系呢?
  1. Video
  2. ID                                       : 1
  3. Format                                   : AVC
  4. Format/Info                              : Advanced Video Codec
  5. Format profile                           : [email protected]
  6. Format settings                          : CABAC / 4 Ref Frames
  7. Format settings, CABAC                   : Yes
  8. Format settings, Reference frames        : 4 frames
  9. Muxing mode                              : Header stripping
  10. Codec ID                                 : V_MPEG4/ISO/AVC
  11. Duration                                 : 1 h 26 min
  12. Bit rate                                 : 5 163 kb/s
  13. Width                                    : 1 920 pixels
  14. Height                                   : 1 080 pixels
  15. Display aspect ratio                     : 16:9
  16. Frame rate mode                          : Constant
  17. Frame rate                               : 23.976 FPS
  18. Color space                              : YUV
  19. Chroma subsampling                       : 4:2:0
  20. Bit depth                                : 8 bits
  21. Scan type                                : Progressive
  22. Bits/(Pixel*Frame)                       : 0.104
  23. Stream size                              : 3.11 GiB (91%)
  24. Language                                 : English
  25. Default                                  : Yes
  26. Forced                                   : No
  27. Color range                              : Limited
  28. Color primaries                          : BT.709
  29. Transfer characteristics                 : BT.709
  30. Matrix coefficients                      : BT.709

  31. Audio
  32. ID                                       : 2
  33. Format                                   : AC-3
  34. Format/Info                              : Audio Coding 3
  35. Commercial name                          : Dolby Digital
  36. Muxing mode                              : Header stripping
  37. Codec ID                                 : A_AC3
  38. Duration                                 : 1 h 26 min
  39. Bit rate mode                            : Constant
  40. Bit rate                                 : 384 kb/s
  41. Channel(s)                               : 6 channels
  42. Channel layout                           : L R C LFE Ls Rs
  43. Sampling rate                            : 48.0 kHz
  44. Frame rate                               : 31.250 FPS (1536 SPF)
  45. Bit depth                                : 16 bits
  46. Compression mode                         : Lossy
  47. Stream size                              : 237 MiB (7%)
  48. Language                                 : English
  49. Service kind                             : Complete Main
  50. Default                                  : Yes
  51. Forced                                   : No
复制代码

重回血腥灭亡营/沉睡野营地5 Return.to.Sleepaway.Camp.2008.1080p.WEB-DL.DD5.1.H264-MooMa 3.41GB-1.png 重回血腥灭亡营/沉睡野营地5 Return.to.Sleepaway.Camp.2008.1080p.WEB-DL.DD5.1.H264-MooMa 3.41GB-3.png 重回血腥灭亡营/沉睡野营地5 Return.to.Sleepaway.Camp.2008.1080p.WEB-DL.DD5.1.H264-MooMa 3.41GB-4.png






回复

使用道具 举报

懒得打字嘛,点击右侧快捷回复 【右侧内容,后台自定义】
您需要登录后才可以回帖 登录 | 立即加入

本版积分规则

Archiver|小黑屋| 蓝光电影网 |网站地图

Copyright © 2021 Comsenz Inc. Powered by 蓝光电影网

蓝光电影网

本站内容由用户自主分享和转载自互联网,转载目的在于传递更多信息,并不代表本网赞同其观点和对其真实性负责。

如有侵权、违反国家法律政策行为,请联系我们,我们会第一时间及时清除和处理!

举报反馈邮箱:[email protected]

快速回复 返回顶部 返回列表