找回密码

蓝光电影网

查看: 157|回复: 0

[喜剧] 撞板三舞男 Brain.Donors.1992.1080p.WEB-DL.DD5.1.H264-LCDS 3.04GB

[复制链接]
蓝光币
1022
发表于 2020-2-4 11:33:41 | 显示全部楼层 |阅读模式
撞板三舞男 Brain.Donors.1992.1080p.WEB-DL.DD5.1.H264-LCDS 3.04GB-1.png

译  名 撞板三舞男
片  名 Brain Donors
年  代 1992
产  地 美国
类  别 笑剧
语  言 英语
上映日期 1992-04-17
IMDb评分  7.1/10 from 3837 users
IMDb链接  https://www.imdb.com/title/tt0103872
豆瓣评分 0/10 from 0 users
豆瓣链接 https://movie.douban.com/subject/2051811/
片  长 Spain: 76 分钟
导  演 Dennis Dugan
编  剧 Pat Proft / George S. Kaufman
主  演 John Turturro
       Bob Nelson
       Mel Smith
       George De La Pena
       John Savident
       Spike Alexander


标  签 笑剧 | 蠢 | 美国电影 | 美国 | 童年 | 四星及以上 | 电影 | 差

简  介  

  Three manic idiots; a lawyer, cab driver and a handyman team up to run a ballet company to fulfill the will of a millionaire. Stooge-like antics result as the trio try to outwit the rich widow and her scheming big-shot lawyer, who also wants to run the ballet
  1. Video
  2. ID                                       : 1
  3. Format                                   : AVC
  4. Format/Info                              : Advanced Video Codec
  5. Format profile                           : [email protected]
  6. Format settings                          : CABAC / 4 Ref Frames
  7. Format settings, CABAC                   : Yes
  8. Format settings, Reference frames        : 4 frames
  9. Codec ID                                 : V_MPEG4/ISO/AVC
  10. Duration                                 : 1 h 19 min
  11. Bit rate                                 : 5 094 kb/s
  12. Width                                    : 1 920 pixels
  13. Height                                   : 1 080 pixels
  14. Display aspect ratio                     : 16:9
  15. Frame rate mode                          : Constant
  16. Frame rate                               : 23.976 (24000/1001) FPS
  17. Color space                              : YUV
  18. Chroma subsampling                       : 4:2:0
  19. Bit depth                                : 8 bits
  20. Scan type                                : Progressive
  21. Bits/(Pixel*Frame)                       : 0.102
  22. Stream size                              : 2.82 GiB (93%)
  23. Default                                  : Yes
  24. Forced                                   : No
  25. Color range                              : Limited
  26. Color primaries                          : BT.709
  27. Transfer characteristics                 : BT.709
  28. Matrix coefficients                      : BT.709

  29. Audio
  30. ID                                       : 2
  31. Format                                   : AC-3
  32. Format/Info                              : Audio Coding 3
  33. Commercial name                          : Dolby Digital
  34. Codec ID                                 : A_AC3
  35. Duration                                 : 1 h 19 min
  36. Bit rate mode                            : Constant
  37. Bit rate                                 : 384 kb/s
  38. Channel(s)                               : 6 channels
  39. Channel layout                           : L R C LFE Ls Rs
  40. Sampling rate                            : 48.0 kHz
  41. Frame rate                               : 31.250 FPS (1536 SPF)
  42. Compression mode                         : Lossy
  43. Stream size                              : 218 MiB (7%)
  44. Title                                    : English AC3 5.1
  45. Language                                 : English
  46. Service kind                             : Complete Main
  47. Default                                  : Yes
  48. Forced                                   : No

  49. Text
  50. ID                                       : 3
  51. Format                                   : UTF-8
  52. Codec ID                                 : S_TEXT/UTF8
  53. Codec ID/Info                            : UTF-8 Plain Text
  54. Duration                                 : 1 h 14 min
  55. Bit rate                                 : 79 b/s
  56. Count of elements                        : 1057
  57. Stream size                              : 43.2 KiB (0%)
  58. Title                                    : English SRT
  59. Language                                 : English
  60. Default                                  : No
  61. Forced                                   : No

  62. Menu
  63. 00:00:00.000                             : en:Main Titles
  64. 00:04:07.000                             : en:Chasing Ambulances
  65. 00:14:06.000                             : en:Last Will & Testament
  66. 00:20:10.000                             : en:Leotard Nights
  67. 00:29:01.000                             : en:No, No, Nay, Nyet
  68. 00:38:36.000                             : en:Flakfizer Is Ballet
  69. 00:46:12.000                             : en:My Two Favorite "L's"
  70. 00:54:04.000                             : en:Ether, Either
  71. 01:02:14.000                             : en:He Spins, He Scores
  72. 01:12:11.000                             : en:We're A Hit
复制代码

撞板三舞男 Brain.Donors.1992.1080p.WEB-DL.DD5.1.H264-LCDS 3.04GB-1.png 撞板三舞男 Brain.Donors.1992.1080p.WEB-DL.DD5.1.H264-LCDS 3.04GB-3.png 撞板三舞男 Brain.Donors.1992.1080p.WEB-DL.DD5.1.H264-LCDS 3.04GB-4.png 撞板三舞男 Brain.Donors.1992.1080p.WEB-DL.DD5.1.H264-LCDS 3.04GB-5.png 撞板三舞男 Brain.Donors.1992.1080p.WEB-DL.DD5.1.H264-LCDS 3.04GB-6.png 撞板三舞男 Brain.Donors.1992.1080p.WEB-DL.DD5.1.H264-LCDS 3.04GB-7.png






回复

使用道具 举报

懒得打字嘛,点击右侧快捷回复 【右侧内容,后台自定义】
您需要登录后才可以回帖 登录 | 立即加入

本版积分规则

Archiver|小黑屋| 蓝光电影网 |网站地图

Copyright © 2021 Comsenz Inc. Powered by 蓝光电影网

蓝光电影网

本站内容由用户自主分享和转载自互联网,转载目的在于传递更多信息,并不代表本网赞同其观点和对其真实性负责。

如有侵权、违反国家法律政策行为,请联系我们,我们会第一时间及时清除和处理!

举报反馈邮箱:[email protected]

快速回复 返回顶部 返回列表