找回密码

蓝光电影网

查看: 751|回复: 3

[动作] 1号通缉令/一号标靶 Most.Wanted.1997.1080p.WEB-DL.DD5.1.H264-LCDS 2.95GB

[复制链接]
蓝光币
886
发表于 2020-2-4 11:34:47 | 显示全部楼层 |阅读模式
1号通缉令/一号标靶 Most.Wanted.1997.1080p.WEB-DL.DD5.1.H264-LCDS 2.95GB-1.png

译  名 1号通缉令 / 一号标靶 / 一号通缉令 / 头号通缉犯 / 第一号标靶
片  名 Most Wanted
年  代 1997
产  地 美国
类  别 行动 / 惊悚
语  言 英语
上映日期 1997-10-10(美国) / 1998-12(中国大陆)
IMDb评分  5.6/10 from 5453 users
IMDb链接  https://www.imdb.com/title/tt0119709
豆瓣评分 6.7/10 from 942 users
豆瓣链接 https://movie.douban.com/subject/1293260/
片  长 99 分钟
导  演 David Hogan
编  剧 Keenen Ivory Wayans
主  演 Keenen Ivory Wayans
       Jon Voight
       Jill Hennessy
       Paul Sorvino
       Robert Culp


标  签 行动 | 美国 | 狙击 | 美国电影 | 犯罪 | 悬疑 | 1997 | 电影

简  介  

  詹姆斯·邓恩(基伦·埃弗瑞·韦恩斯 Keenen Ivory Wayans 饰)已经是美国水兵陆战队的神枪手,海湾战争时代,他因拒绝射杀一位儿童而杀戮了主座,詹姆斯是以被送上军事法庭,面临死刑的惩罚。在期待死刑时代,他接管了自称格兰特·凯西上校(Jon Voight 饰)的发起,后者保证帮助他逃狱,而他需要加入代号为“黑羊”的暗杀构造。
  获得自在后,詹姆斯的第一个使命是刺杀一位兜销生物技术的企业家。但是在行动之时,却还有奥秘之人争先射杀了总统夫人,詹姆斯瞬间成为替罪羔羊。荣幸的是,名叫维多利娅·康斯坦丁妮(Jill Hennessy 饰)的女医生用摄像机拍下了现场发生的一切。为了洗刷罪名,詹姆斯想方设法要找到那卷录像带,而躲在幕后的黑手也悄悄展开行动……
  1. Video
  2. ID                                       : 1
  3. Format                                   : AVC
  4. Format/Info                              : Advanced Video Codec
  5. Format profile                           : [email protected]
  6. Format settings                          : CABAC / 5 Ref Frames
  7. Format settings, CABAC                   : Yes
  8. Format settings, Reference frames        : 5 frames
  9. Codec ID                                 : V_MPEG4/ISO/AVC
  10. Duration                                 : 1 h 38 min
  11. Bit rate                                 : 3 875 kb/s
  12. Width                                    : 1 916 pixels
  13. Height                                   : 812 pixels
  14. Display aspect ratio                     : 2.35:1
  15. Frame rate mode                          : Constant
  16. Frame rate                               : 23.976 (24000/1001) FPS
  17. Color space                              : YUV
  18. Chroma subsampling                       : 4:2:0
  19. Bit depth                                : 8 bits
  20. Scan type                                : Progressive
  21. Bits/(Pixel*Frame)                       : 0.104
  22. Stream size                              : 2.68 GiB (91%)
  23. Default                                  : Yes
  24. Forced                                   : No
  25. Color range                              : Limited
  26. Color primaries                          : BT.709
  27. Transfer characteristics                 : BT.709
  28. Matrix coefficients                      : BT.709

  29. Audio
  30. ID                                       : 2
  31. Format                                   : AC-3
  32. Format/Info                              : Audio Coding 3
  33. Commercial name                          : Dolby Digital
  34. Codec ID                                 : A_AC3
  35. Duration                                 : 1 h 38 min
  36. Bit rate mode                            : Constant
  37. Bit rate                                 : 384 kb/s
  38. Channel(s)                               : 6 channels
  39. Channel layout                           : L R C LFE Ls Rs
  40. Sampling rate                            : 48.0 kHz
  41. Frame rate                               : 31.250 FPS (1536 SPF)
  42. Compression mode                         : Lossy
  43. Stream size                              : 272 MiB (9%)
  44. Title                                    : English AC3 5.1
  45. Language                                 : English
  46. Service kind                             : Complete Main
  47. Default                                  : Yes
  48. Forced                                   : No

  49. Text
  50. ID                                       : 3
  51. Format                                   : UTF-8
  52. Codec ID                                 : S_TEXT/UTF8
  53. Codec ID/Info                            : UTF-8 Plain Text
  54. Duration                                 : 1 h 32 min
  55. Bit rate                                 : 46 b/s
  56. Count of elements                        : 1065
  57. Stream size                              : 31.2 KiB (0%)
  58. Title                                    : English SRT
  59. Language                                 : English
  60. Default                                  : No
  61. Forced                                   : No

  62. Menu
  63. 00:00:00.000                             : en:Chapter 1
  64. 00:03:54.000                             : en:Chapter 2
  65. 00:06:13.000                             : en:Chapter 3
  66. 00:09:19.000                             : en:Chapter 4
  67. 00:13:28.000                             : en:Chapter 5
  68. 00:20:43.000                             : en:Chapter 6
  69. 00:23:35.000                             : en:Chapter 7
  70. 00:28:35.000                             : en:Chapter 8
  71. 00:35:07.000                             : en:Chapter 9
  72. 00:38:58.000                             : en:Chapter 10
  73. 00:42:56.000                             : en:Chapter 11
  74. 00:45:35.000                             : en:Chapter 12
  75. 00:49:04.000                             : en:Chapter 13
  76. 00:51:49.000                             : en:Chapter 14
  77. 00:54:15.000                             : en:Chapter 15
  78. 00:59:52.000                             : en:Chapter 16
  79. 01:04:29.000                             : en:Chapter 17
  80. 01:07:35.000                             : en:Chapter 18
  81. 01:13:38.000                             : en:Chapter 19
  82. 01:16:17.000                             : en:Chapter 20
  83. 01:21:32.000                             : en:Chapter 21
  84. 01:24:41.000                             : en:Chapter 22
  85. 01:27:53.000                             : en:Chapter 23
  86. 01:32:09.000                             : en:Chapter 24
复制代码

1号通缉令/一号标靶 Most.Wanted.1997.1080p.WEB-DL.DD5.1.H264-LCDS 2.95GB-2.png 1号通缉令/一号标靶 Most.Wanted.1997.1080p.WEB-DL.DD5.1.H264-LCDS 2.95GB-3.png 1号通缉令/一号标靶 Most.Wanted.1997.1080p.WEB-DL.DD5.1.H264-LCDS 2.95GB-4.png 1号通缉令/一号标靶 Most.Wanted.1997.1080p.WEB-DL.DD5.1.H264-LCDS 2.95GB-5.png 1号通缉令/一号标靶 Most.Wanted.1997.1080p.WEB-DL.DD5.1.H264-LCDS 2.95GB-6.png 1号通缉令/一号标靶 Most.Wanted.1997.1080p.WEB-DL.DD5.1.H264-LCDS 2.95GB-7.png






回复

使用道具 举报

懒得打字嘛,点击右侧快捷回复 【右侧内容,后台自定义】
您需要登录后才可以回帖 登录 | 立即加入

本版积分规则

Archiver|小黑屋| 蓝光电影网 |网站地图

Copyright © 2021 Comsenz Inc. Powered by 蓝光电影网

蓝光电影网

本站内容由用户自主分享和转载自互联网,转载目的在于传递更多信息,并不代表本网赞同其观点和对其真实性负责。

如有侵权、违反国家法律政策行为,请联系我们,我们会第一时间及时清除和处理!

举报反馈邮箱:[email protected]

快速回复 返回顶部 返回列表