找回密码

蓝光电影网

查看: 275|回复: 0

[剧情] 奇幻核子战/失误 Fail-Safe.1964.REMASTERED.720p.BluRay.x264-SiNNERS 5.46GB

[复制链接]
蓝光币
886
发表于 2020-2-4 11:38:49 | 显示全部楼层 |阅读模式
奇异核子战/失误 Fail-Safe.1964.REMASTERED.720p.BluRay.x264-SiNNERS 5.46GB-1.png

译  名 奇异核子战 / 失误 / 核子战争
片  名 Fail-Safe
年  代 1964
产  地 美国
类  别 剧情 / 惊悚 / 冒险
语  言 英语
上映日期 1964-10-07
IMDb评分  8.0/10 from 18143 users
IMDb链接  https://www.imdb.com/title/tt0058083
豆瓣评分 8.5/10 from 731 users
豆瓣链接 https://movie.douban.com/subject/1293514/
片  长 112 分钟
导  演 Sidney Lumet
编  剧 Walter Bernstein
主  演 Henry Fonda
       Dan O'Herlihy
       Walter Matthau
       Frank Overton
       Larry Hagman


标  签 美国 | 战争 | 科幻 | 西德尼·吕美特 | 1964 | 美国电影 | SidneyLumet | 1960s

简  介  

  改编自尤金.贝狄克和哈维.威尔勒的作品,是一部从美苏对峙的冷战情势引伸出来的“写实空想片"。内容报告由于机械失误的关系,美国轰炸机队动身轰炸莫斯科,美国总统在没法唤回轰炸机之余,命令美军也将纽约摧毁。本片片中所描写的情况很有能够发生,是以对观众具有一种激烈的震动力。导演自收场非常钟以后即一向紧握氛围至终场,但收场的首非常钟却有点紊乱。本片最大的特点就是全无配乐。
  1. Video
  2. ID                                       : 1
  3. Format                                   : AVC
  4. Format/Info                              : Advanced Video Codec
  5. Format profile                           : [email protected]
  6. Format settings                          : CABAC / 9 Ref Frames
  7. Format settings, CABAC                   : Yes
  8. Format settings, Reference frames        : 9 frames
  9. Codec ID                                 : V_MPEG4/ISO/AVC
  10. Duration                                 : 1 h 52 min
  11. Bit rate                                 : 6 420 kb/s
  12. Width                                    : 1 280 pixels
  13. Height                                   : 696 pixels
  14. Display aspect ratio                     : 1.85:1
  15. Frame rate mode                          : Constant
  16. Frame rate                               : 23.976 (24000/1001) FPS
  17. Color space                              : YUV
  18. Chroma subsampling                       : 4:2:0
  19. Bit depth                                : 8 bits
  20. Scan type                                : Progressive
  21. Bits/(Pixel*Frame)                       : 0.301
  22. Stream size                              : 5.04 GiB (92%)
  23. Writing library                          : x264 core 159 r2991 1771b55
  24. Encoding settings                        : cabac=1 / ref=9 / deblock=1:-3:-3 / analyse=0x3:0x113 / me=umh / subme=8 / psy=1 / psy_rd=1.00:0.00 / mixed_ref=1 / me_range=16 / chroma_me=1 / trellis=2 / 8x8dct=1 / cqm=0 / deadzone=21,11 / fast_pskip=0 / chroma_qp_offset=-2 / threads=22 / lookahead_threads=3 / sliced_threads=0 / nr=0 / decimate=1 / interlaced=0 / bluray_compat=0 / constrained_intra=0 / bframes=3 / b_pyramid=2 / b_adapt=1 / b_bias=0 / direct=1 / weightb=1 / open_gop=0 / weightp=2 / keyint=250 / keyint_min=23 / scenecut=40 / intra_refresh=0 / rc_lookahead=40 / rc=2pass / mbtree=1 / bitrate=6420 / ratetol=1.0 / qcomp=0.60 / qpmin=0 / qpmax=69 / qpstep=4 / cplxblur=20.0 / qblur=0.5 / ip_ratio=1.40 / aq=1:1.00
  25. Language                                 : English
  26. Default                                  : Yes
  27. Forced                                   : No

  28. Audio
  29. ID                                       : 2
  30. Format                                   : FLAC
  31. Format/Info                              : Free Lossless Audio Codec
  32. Codec ID                                 : A_FLAC
  33. Duration                                 : 1 h 52 min
  34. Bit rate mode                            : Variable
  35. Bit rate                                 : 540 kb/s
  36. Channel(s)                               : 1 channel
  37. Channel layout                           : C
  38. Sampling rate                            : 48.0 kHz
  39. Frame rate                               : 11.719 FPS (4096 SPF)
  40. Bit depth                                : 24 bits
  41. Compression mode                         : Lossless
  42. Stream size                              : 434 MiB (8%)
  43. Writing library                          : libFLAC 1.3.2 (UTC 2017-01-01)
  44. Language                                 : English
  45. Default                                  : Yes
  46. Forced                                   : No

  47. Text #1
  48. ID                                       : 3
  49. Format                                   : UTF-8
  50. Codec ID                                 : S_TEXT/UTF8
  51. Codec ID/Info                            : UTF-8 Plain Text
  52. Duration                                 : 1 h 50 min
  53. Bit rate                                 : 82 b/s
  54. Count of elements                        : 1629
  55. Stream size                              : 66.6 KiB (0%)
  56. Language                                 : English
  57. Default                                  : No
  58. Forced                                   : No

  59. Text #2
  60. ID                                       : 4
  61. Format                                   : UTF-8
  62. Codec ID                                 : S_TEXT/UTF8
  63. Codec ID/Info                            : UTF-8 Plain Text
  64. Duration                                 : 1 h 51 min
  65. Bit rate                                 : 84 b/s
  66. Count of elements                        : 1696
  67. Stream size                              : 69.3 KiB (0%)
  68. Title                                    : SDH
  69. Language                                 : English
  70. Default                                  : No
  71. Forced                                   : No

  72. Menu
  73. 00:00:00.000                             : en:00:00:00.000
  74. 00:06:56.249                             : en:00:06:56.249
  75. 00:13:22.176                             : en:00:13:22.176
  76. 00:26:01.769                             : en:00:26:01.769
  77. 00:31:34.935                             : en:00:31:34.935
  78. 00:35:02.267                             : en:00:35:02.267
  79. 00:39:37.709                             : en:00:39:37.709
  80. 00:46:58.315                             : en:00:46:58.315
  81. 00:50:46.502                             : en:00:50:46.502
  82. 00:58:09.486                             : en:00:58:09.486
  83. 01:05:57.537                             : en:01:05:57.537
  84. 01:17:04.912                             : en:01:17:04.912
  85. 01:19:04.239                             : en:01:19:04.239
  86. 01:24:36.238                             : en:01:24:36.238
  87. 01:28:57.415                             : en:01:28:57.415
  88. 01:33:32.190                             : en:01:33:32.190
  89. 01:37:43.357                             : en:01:37:43.357
  90. 01:44:17.460                             : en:01:44:17.460
  91. 01:48:33.340                             : en:01:48:33.340
复制代码

奇异核子战/失误 Fail-Safe.1964.REMASTERED.720p.BluRay.x264-SiNNERS 5.46GB-1.png






回复

使用道具 举报

懒得打字嘛,点击右侧快捷回复 【右侧内容,后台自定义】
您需要登录后才可以回帖 登录 | 立即加入

本版积分规则

Archiver|小黑屋| 蓝光电影网 |网站地图

Copyright © 2021 Comsenz Inc. Powered by 蓝光电影网

蓝光电影网

本站内容由用户自主分享和转载自互联网,转载目的在于传递更多信息,并不代表本网赞同其观点和对其真实性负责。

如有侵权、违反国家法律政策行为,请联系我们,我们会第一时间及时清除和处理!

举报反馈邮箱:[email protected]

快速回复 返回顶部 返回列表