找回密码

蓝光电影网

查看: 9144|回复: 7

[战争] 大作战/伟大的战争 The.Great.War.2019.1080p.BluRay.x264-ROVERS 7.96GB

  [复制链接]
蓝光币
1022
发表于 2020-2-4 11:41:33 | 显示全部楼层 |阅读模式
高文战/巨大的战争 The.Great.War.2019.1080p.BluRay.x264-ROVERS 7.96GB-1.png

译  名 高文战 / 巨大的战争 / 高文战 黑白高文战
片  名 The Great War
年  代 2019
产  地 美国
类  别 剧情 / 战争
语  言 英语
上映日期 2019-04-07(美国)
IMDb评分  3.5/10 from 349 users
IMDb链接  https://www.imdb.com/title/tt6198246
豆瓣评分 0/10 from 0 users
豆瓣链接 https://movie.douban.com/subject/34819475/
导  演 史蒂文·卢克 Steven Luke
编  剧 史蒂文·卢克 Steven Luke
主  演 比利·赞恩 Billy Zane
       朗·普尔曼 Ron Perlman
       贝茨·怀尔德 Bates Wilder
       海勒姆·穆雷 Hiram A. Murray
       Jordan McFadden
       Edgar Damatian
       Ryan J. Gilmer
       Andrew Stecker
       Wade Everett
       Judah McFadden
       Aaron Courteau


标  签 美国 | 一战 | 种族 | 老兵 | 战争 | 高文战 | (2019) | 性奴,反转

简  介  

  During the last days of the Great War, A group of U.S. soldiers are sent behind enemy lines to rescue a lost platoon.
  1. Video
  2. ID                                       : 1
  3. Format                                   : AVC
  4. Format/Info                              : Advanced Video Codec
  5. Format profile                           : [email protected]
  6. Format settings                          : CABAC / 5 Ref Frames
  7. Format settings, CABAC                   : Yes
  8. Format settings, Reference frames        : 5 frames
  9. Codec ID                                 : V_MPEG4/ISO/AVC
  10. Duration                                 : 1 h 49 min
  11. Bit rate                                 : 8 861 kb/s
  12. Width                                    : 1 920 pixels
  13. Height                                   : 808 pixels
  14. Display aspect ratio                     : 2.40:1
  15. Frame rate mode                          : Constant
  16. Frame rate                               : 23.976 (24000/1001) FPS
  17. Color space                              : YUV
  18. Chroma subsampling                       : 4:2:0
  19. Bit depth                                : 8 bits
  20. Scan type                                : Progressive
  21. Bits/(Pixel*Frame)                       : 0.238
  22. Stream size                              : 6.79 GiB (85%)
  23. Writing library                          : x264 core 159 r2991 1771b55
  24. Encoding settings                        : cabac=1 / ref=5 / deblock=1:-3:-3 / analyse=0x3:0x133 / me=umh / subme=8 / psy=1 / psy_rd=1.00:0.00 / mixed_ref=1 / me_range=16 / chroma_me=1 / trellis=1 / 8x8dct=1 / cqm=0 / deadzone=21,11 / fast_pskip=0 / chroma_qp_offset=-2 / threads=25 / lookahead_threads=4 / sliced_threads=0 / nr=0 / decimate=1 / interlaced=0 / bluray_compat=0 / constrained_intra=0 / bframes=3 / b_pyramid=2 / b_adapt=1 / b_bias=0 / direct=3 / weightb=1 / open_gop=0 / weightp=2 / keyint=250 / keyint_min=23 / scenecut=40 / intra_refresh=0 / rc_lookahead=50 / rc=2pass / mbtree=1 / bitrate=8861 / ratetol=1.0 / qcomp=0.60 / qpmin=0 / qpmax=69 / qpstep=4 / cplxblur=20.0 / qblur=0.5 / vbv_maxrate=62500 / vbv_bufsize=78125 / nal_hrd=none / filler=0 / ip_ratio=1.40 / aq=1:1.00
  25. Default                                  : Yes
  26. Forced                                   : No

  27. Audio
  28. ID                                       : 2
  29. Format                                   : DTS
  30. Format/Info                              : Digital Theater Systems
  31. Codec ID                                 : A_DTS
  32. Duration                                 : 1 h 49 min
  33. Bit rate mode                            : Constant
  34. Bit rate                                 : 1 509 kb/s
  35. Channel(s)                               : 6 channels
  36. Channel layout                           : C L R Ls Rs LFE
  37. Sampling rate                            : 48.0 kHz
  38. Frame rate                               : 93.750 FPS (512 SPF)
  39. Bit depth                                : 24 bits
  40. Compression mode                         : Lossy
  41. Stream size                              : 1.16 GiB (15%)
  42. Language                                 : English
  43. Default                                  : Yes
  44. Forced                                   : No

  45. Menu
  46. 00:00:00.000                             : en:00:00:00.000
  47. 00:08:28.967                             : en:00:08:28.967
  48. 00:14:52.517                             : en:00:14:52.517
  49. 00:18:34.280                             : en:00:18:34.280
  50. 00:26:49.691                             : en:00:26:49.691
  51. 00:30:58.440                             : en:00:30:58.440
  52. 00:37:51.019                             : en:00:37:51.019
  53. 00:43:50.878                             : en:00:43:50.878
  54. 00:49:25.880                             : en:00:49:25.880
  55. 00:57:50.842                             : en:00:57:50.842
  56. 01:05:56.953                             : en:01:05:56.953
  57. 01:08:35.111                             : en:01:08:35.111
  58. 01:15:30.443                             : en:01:15:30.443
  59. 01:22:15.931                             : en:01:22:15.931
  60. 01:28:55.997                             : en:01:28:55.997
  61. 01:38:03.711                             : en:01:38:03.711
复制代码

高文战/巨大的战争 The.Great.War.2019.1080p.BluRay.x264-ROVERS 7.96GB-2.png






回复

使用道具 举报

蓝光币
746
发表于 2020-2-4 16:51:30 | 显示全部楼层
谢谢楼主无私分享。
回复 支持 反对

使用道具 举报

蓝光币
118
发表于 2020-2-6 12:20:53 | 显示全部楼层
楼主发贴辛苦了,谢谢楼主分享!我觉得蓝光电影网是注册对了!
回复 支持 反对

使用道具 举报

蓝光币
118
发表于 2020-2-6 12:22:14 | 显示全部楼层

楼主,大恩不言谢了!蓝光电影网是最棒的!
回复 支持 反对

使用道具 举报

蓝光币
18
发表于 2020-2-11 15:24:42 | 显示全部楼层
我看不错噢 谢谢楼主
回复 支持 反对

使用道具 举报

蓝光币
243
发表于 2020-8-10 10:16:13 | 显示全部楼层
楼主发贴辛苦了,谢谢楼主分享!我觉得蓝光电影网是注册对了!
回复 支持 反对

使用道具 举报

蓝光币
243
发表于 2020-9-24 08:58:58 | 显示全部楼层

楼主太厉害了!楼主,电影应该很好看我觉得蓝光电影网真是个好地方!
回复 支持 反对

使用道具 举报

蓝光币
165
发表于 2022-6-14 09:06:07 | 显示全部楼层
感谢楼主的分享
回复 支持 反对

使用道具 举报

懒得打字嘛,点击右侧快捷回复 【右侧内容,后台自定义】
您需要登录后才可以回帖 登录 | 立即加入

本版积分规则

Archiver|小黑屋| 蓝光电影网 |网站地图

Copyright © 2021 Comsenz Inc. Powered by 蓝光电影网

蓝光电影网

本站内容由用户自主分享和转载自互联网,转载目的在于传递更多信息,并不代表本网赞同其观点和对其真实性负责。

如有侵权、违反国家法律政策行为,请联系我们,我们会第一时间及时清除和处理!

举报反馈邮箱:[email protected]

快速回复 返回顶部 返回列表