找回密码

蓝光电影网

查看: 583|回复: 3

[动作] 杀神十号/杀神10号 Death.Machine.1994.720p.BluRay.x264-CREEPSHOW 6.55GB

[复制链接]
蓝光币
886
发表于 2020-2-4 11:51:35 | 显示全部楼层 |阅读模式
杀神十号/杀神10号 Death.Machine.1994.720p.BluRay.x264-CREEPSHOW 6.55GB-1.png

译  名 杀神十号 / 杀神10号 / 灭亡机械
片  名 Death Machine
年  代 1994
产  地 英国
类  别 行动 / 科幻 / 惊悚 / 可骇
语  言 英语
上映日期 1995-05-26
IMDb评分  5.7/10 from 3542 users
IMDb链接  https://www.imdb.com/title/tt0109575
豆瓣评分 6.2/10 from 139 users
豆瓣链接 https://movie.douban.com/subject/1298181/
片  长 99 分钟
导  演 斯蒂芬·诺林顿 Stephen Norrington
编  剧 斯蒂芬·诺林顿 Stephen Norrington
主  演 布拉德·道里夫 Brad Dourif
       约翰·沙拉恩 John Sharian
       理查德·布雷克 Richard Brake
       蕾切尔·薇兹 Rachel Weisz
       Ely Pouget


标  签 科幻 | 可骇 | 行动 | 英国 | 1994 | 美国 | 英国电影 | 美国电影

简  介  

  由“Vidmark"电影公司出品,斯蒂芬.诺林顿执导。2003年的未来天下,由一个刻毒无情的首领操纵先辈兵器所统治,他具有一个庞大团体专门生产先辈兵器,而该团体的总裁尼高逊忽然暴毙,死因不明,且死状可骇,因而奥秘女子卡莉接任总裁一职。卡莉上任未几,立即与首领匹敌,面临着首领设想的杀人兵器——杀神十号展开一场龙争虎斗。本片是带有一点科幻性质的惊险行动片,全片故工作节放置公道,特技拍摄也恰到益处。
  1. Video
  2. ID                                       : 1
  3. Format                                   : AVC
  4. Format/Info                              : Advanced Video Codec
  5. Format profile                           : [email protected]
  6. Format settings                          : CABAC / 5 Ref Frames
  7. Format settings, CABAC                   : Yes
  8. Format settings, Reference frames        : 5 frames
  9. Codec ID                                 : V_MPEG4/ISO/AVC
  10. Duration                                 : 2 h 2 min
  11. Bit rate                                 : 6 167 kb/s
  12. Width                                    : 1 280 pixels
  13. Height                                   : 544 pixels
  14. Display aspect ratio                     : 2.35:1
  15. Frame rate mode                          : Constant
  16. Frame rate                               : 24.000 FPS
  17. Color space                              : YUV
  18. Chroma subsampling                       : 4:2:0
  19. Bit depth                                : 8 bits
  20. Scan type                                : Progressive
  21. Bits/(Pixel*Frame)                       : 0.369
  22. Stream size                              : 5.26 GiB (80%)
  23. Writing library                          : x264 core 157 r2969 d4099dd
  24. Encoding settings                        : cabac=1 / ref=5 / deblock=1:-2:-2 / analyse=0x3:0x133 / me=umh / subme=9 / psy=1 / psy_rd=1.00:0.00 / mixed_ref=1 / me_range=16 / chroma_me=1 / trellis=2 / 8x8dct=1 / cqm=0 / deadzone=21,11 / fast_pskip=0 / chroma_qp_offset=-2 / threads=12 / lookahead_threads=1 / sliced_threads=0 / nr=0 / decimate=1 / interlaced=0 / bluray_compat=0 / constrained_intra=0 / bframes=3 / b_pyramid=2 / b_adapt=2 / b_bias=0 / direct=3 / weightb=1 / open_gop=0 / weightp=2 / keyint=240 / keyint_min=24 / scenecut=40 / intra_refresh=0 / rc_lookahead=50 / rc=2pass / mbtree=1 / bitrate=6167 / ratetol=1.0 / qcomp=0.60 / qpmin=0 / qpmax=69 / qpstep=4 / cplxblur=20.0 / qblur=0.5 / vbv_maxrate=62500 / vbv_bufsize=78125 / nal_hrd=none / filler=0 / ip_ratio=1.40 / aq=1:0.70
  25. Default                                  : Yes
  26. Forced                                   : No

  27. Audio
  28. ID                                       : 2
  29. Format                                   : DTS
  30. Format/Info                              : Digital Theater Systems
  31. Codec ID                                 : A_DTS
  32. Duration                                 : 2 h 2 min
  33. Bit rate mode                            : Constant
  34. Bit rate                                 : 1 509 kb/s
  35. Channel(s)                               : 6 channels
  36. Channel layout                           : C L R Ls Rs LFE
  37. Sampling rate                            : 48.0 kHz
  38. Frame rate                               : 93.750 FPS (512 SPF)
  39. Bit depth                                : 24 bits
  40. Compression mode                         : Lossy
  41. Stream size                              : 1.29 GiB (20%)
  42. Language                                 : English
  43. Default                                  : Yes
  44. Forced                                   : No

  45. Menu
  46. 00:00:00.000                             : en:Chapter 01
  47. 00:05:46.750                             : en:Chapter 02
  48. 00:11:17.667                             : en:Chapter 03
  49. 00:17:49.125                             : en:Chapter 04
  50. 00:20:54.125                             : en:Chapter 05
  51. 00:27:02.292                             : en:Chapter 06
  52. 00:31:21.333                             : en:Chapter 07
  53. 00:39:12.875                             : en:Chapter 08
  54. 00:42:43.000                             : en:Chapter 09
  55. 00:46:45.792                             : en:Chapter 10
  56. 00:51:35.125                             : en:Chapter 11
  57. 00:58:40.875                             : en:Chapter 12
  58. 01:03:46.792                             : en:Chapter 13
  59. 01:08:06.292                             : en:Chapter 14
  60. 01:13:25.875                             : en:Chapter 15
  61. 01:17:37.958                             : en:Chapter 16
  62. 01:22:53.875                             : en:Chapter 17
  63. 01:28:37.250                             : en:Chapter 18
  64. 01:35:02.042                             : en:Chapter 19
  65. 01:42:27.458                             : en:Chapter 20
  66. 01:48:39.417                             : en:Chapter 21
  67. 01:56:02.125                             : en:Chapter 22
复制代码

杀神十号/杀神10号 Death.Machine.1994.720p.BluRay.x264-CREEPSHOW 6.55GB-2.png






回复

使用道具 举报

懒得打字嘛,点击右侧快捷回复 【右侧内容,后台自定义】
您需要登录后才可以回帖 登录 | 立即加入

本版积分规则

Archiver|小黑屋| 蓝光电影网 |网站地图

Copyright © 2021 Comsenz Inc. Powered by 蓝光电影网

蓝光电影网

本站内容由用户自主分享和转载自互联网,转载目的在于传递更多信息,并不代表本网赞同其观点和对其真实性负责。

如有侵权、违反国家法律政策行为,请联系我们,我们会第一时间及时清除和处理!

举报反馈邮箱:[email protected]

快速回复 返回顶部 返回列表