找回密码

蓝光电影网

查看: 330|回复: 1

[剧情] 诱饵/饵 Bait.2019.720p.BluRay.x264-CADAVER 4.37GB

[复制链接]
蓝光币
886
发表于 2020-2-4 11:55:00 | 显示全部楼层 |阅读模式
诱饵/饵 Bait.2019.720p.BluRay.x264-CADAVER 4.37GB-1.png

译  名 诱饵 / 饵(台)
片  名 Bait
年  代 2019
产  地 英国
类  别 剧情
语  言 英语
上映日期 2019-02-09(柏林电影节)
IMDb评分  7.5/10 from 1216 users
IMDb链接  https://www.imdb.com/title/tt9652782
豆瓣评分 0/10 from 0 users
豆瓣链接 https://movie.douban.com/subject/30453075/
片  长 88分钟
导  演 马克·詹金 Mark Jenkin
编  剧 马克·詹金 Mark Jenkin
主  演 Morgan Val Baker
       Georgia Ellery
       Martin Ellis
       Chloe Endean
       Stacey Guthrie
       Jowan Jacobs
       Giles King
       Edward Rowe
       西蒙·谢泼德 Simon Shepherd
       特里斯坦·斯特罗克 Tristan Sturrock
       Mary Woodvine


标  签 英国 | 2019 | 电影 | 剧情 | 柏林电影节 | Mark_Jenkin | 2010s | 黑白

简  介  

  康沃尔渔村的风光亮信片故乡诗误导了人们。虽然曩昔钓鱼是一种养家生活的方式,但现在富有的伦敦旅客纷纷下山,取代了当地人,当地人的生存是以遭到威胁。史蒂文和马丁兄弟的关系也很严重。马丁是一个没有船的渔夫,由于史蒂文起头用它来为一成天的旅客供给更赢利的旅游。他们卖掉了这座家庭别墅,现在看来,最初一场战役是和新仆人在海边的停车位上展开。但是,情况很快就失控了,而不但仅是由于车轮夹钳。
  Bait是一种黑白,手工建造,16毫米胶片建造的电影。很多关于鱼、网、龙虾、长靴、绳结和渔篮的特写镜头让人想起了蒙太奇景点的理论。对分歧社会阶级的描写——可以说是阶级关系——也让人想起了英国电影中的社会现实主义传统。但是,最重要的是,在影象平分歧条理的电影历史参考文献之下,当前很多政治关联正在期待被发现。
  The picture-postcard idyll of the Cornwall fishing village is misleading. While fishing used to be a way of supporting oneself, wealthy London tourists have now descended and are displacing the locals, whose livelihood is thus threatened. The relationship between brothers Steven and Martin is also strained. Martin is a fisherman without a boat, since Steven started using it for far more lucrative tours for all the day-trippers. They’ve sold the family cottage and now it seems that the final battle to be fought is that with the new owners over the parking space next to the sea. Yet the situation soon gets out of hand, and not just because of the wheel clamp.
  Bait is a black-and-white film shot on hand-processed 16mm. Numerous close-ups of fish, nets, lobsters, wellington boots, knots and catch baskets bring to mind the theory of a montage of attractions. The depiction of the different social strata – one could speak of class relations – is also reminiscent of the tradition of social realism in British cinema. Above all, however, a whole lot of current political relevance is waiting to be discovered beneath the different layers of film historical references contained in the images.

获奖情况  

  第73届英国电影学院奖(2020)
  电影奖 最好英国影片(提名)
  电影奖 英国外乡精采童贞作(提名) 马克·詹金

  第22届英国自力电影奖(2019)
  最好英国自力电影(提名)
  最好导演(提名) 马克·詹金
  制片冲破
  最好剪辑(提名)

  第40届伦敦影评人协会奖(2020)
  年度英国/爱尔兰电影(提名)
  年度冲破英国/爱尔兰电影人(提名) 马克·詹金
  1. Video
  2. ID                                       : 1
  3. Format                                   : AVC
  4. Format/Info                              : Advanced Video Codec
  5. Format profile                           : [email protected]
  6. Format settings                          : CABAC / 12 Ref Frames
  7. Format settings, CABAC                   : Yes
  8. Format settings, Reference frames        : 12 frames
  9. Codec ID                                 : V_MPEG4/ISO/AVC
  10. Duration                                 : 1 h 28 min
  11. Bit rate                                 : 6 067 kb/s
  12. Width                                    : 944 pixels
  13. Height                                   : 720 pixels
  14. Display aspect ratio                     : 4:3
  15. Frame rate mode                          : Constant
  16. Frame rate                               : 23.976 (24000/1001) FPS
  17. Color space                              : YUV
  18. Chroma subsampling                       : 4:2:0
  19. Bit depth                                : 8 bits
  20. Scan type                                : Progressive
  21. Bits/(Pixel*Frame)                       : 0.372
  22. Stream size                              : 3.76 GiB (86%)
  23. Writing library                          : x264 core 159 r2991 1771b55
  24. Encoding settings                        : cabac=1 / ref=12 / deblock=1:-3:-3 / analyse=0x3:0x133 / me=umh / subme=9 / psy=1 / psy_rd=1.00:0.00 / mixed_ref=1 / me_range=24 / chroma_me=1 / trellis=1 / 8x8dct=1 / cqm=0 / deadzone=21,11 / fast_pskip=0 / chroma_qp_offset=-2 / threads=6 / lookahead_threads=1 / sliced_threads=0 / nr=0 / decimate=1 / interlaced=0 / bluray_compat=0 / constrained_intra=0 / bframes=8 / b_pyramid=2 / b_adapt=2 / b_bias=0 / direct=3 / weightb=1 / open_gop=0 / weightp=2 / keyint=250 / keyint_min=23 / scenecut=40 / intra_refresh=0 / rc_lookahead=60 / rc=2pass / mbtree=1 / bitrate=6067 / ratetol=1.0 / qcomp=0.60 / qpmin=0 / qpmax=69 / qpstep=4 / cplxblur=20.0 / qblur=0.5 / vbv_maxrate=62500 / vbv_bufsize=78125 / nal_hrd=none / filler=0 / ip_ratio=1.40 / aq=1:1.00
  25. Default                                  : Yes
  26. Forced                                   : No

  27. Audio
  28. ID                                       : 2
  29. Format                                   : FLAC
  30. Format/Info                              : Free Lossless Audio Codec
  31. Codec ID                                 : A_FLAC
  32. Duration                                 : 1 h 28 min
  33. Bit rate mode                            : Variable
  34. Bit rate                                 : 976 kb/s
  35. Channel(s)                               : 2 channels
  36. Channel layout                           : L R
  37. Sampling rate                            : 48.0 kHz
  38. Frame rate                               : 10.417 FPS (4608 SPF)
  39. Bit depth                                : 24 bits
  40. Compression mode                         : Lossless
  41. Stream size                              : 620 MiB (14%)
  42. Writing library                          : Lavf58.29.100
  43. Language                                 : English
  44. Default                                  : Yes
  45. Forced                                   : No

  46. Menu
  47. 00:00:00.000                             : en:Chapter 01
  48. 00:07:22.525                             : en:Chapter 02
  49. 00:14:48.387                             : en:Chapter 03
  50. 00:24:01.106                             : en:Chapter 04
  51. 00:29:21.969                             : en:Chapter 05
  52. 00:37:48.308                             : en:Chapter 06
  53. 00:43:13.216                             : en:Chapter 07
  54. 00:50:53.300                             : en:Chapter 08
  55. 00:58:18.245                             : en:Chapter 09
  56. 01:07:01.601                             : en:Chapter 10
  57. 01:12:49.991                             : en:Chapter 11
  58. 01:21:14.078                             : en:Chapter 12
复制代码

诱饵/饵 Bait.2019.720p.BluRay.x264-CADAVER 4.37GB-1.png






回复

使用道具 举报

蓝光币
3734
发表于 2020-2-5 00:09:26 | 显示全部楼层
谢谢楼主分享
回复 支持 反对

使用道具 举报

懒得打字嘛,点击右侧快捷回复 【右侧内容,后台自定义】
您需要登录后才可以回帖 登录 | 立即加入

本版积分规则

Archiver|小黑屋| 蓝光电影网 |网站地图

Copyright © 2021 Comsenz Inc. Powered by 蓝光电影网

蓝光电影网

本站内容由用户自主分享和转载自互联网,转载目的在于传递更多信息,并不代表本网赞同其观点和对其真实性负责。

如有侵权、违反国家法律政策行为,请联系我们,我们会第一时间及时清除和处理!

举报反馈邮箱:[email protected]

快速回复 返回顶部 返回列表