找回密码

蓝光电影网

查看: 511|回复: 1

[剧情] 浪潮 Waves.2019.1080p.BluRay.REMUX.AVC.DTS-HD.MA.5.1-FGT 34.01GB

[复制链接]
蓝光币
886
发表于 2020-2-4 11:59:13 | 显示全部楼层 |阅读模式
浪潮 Waves.2019.1080p.BluRay.REMUX.AVC.DTS-HD.MA.5.1-FGT 34.01GB-1.png

译  名 浪潮
片  名 Waves
年  代 2019
产  地 美国
类  别 剧情 / 恋爱
语  言 英语
上映日期 2019-08-30(特柳赖德电影节) / 2019-11-15(美国)
IMDb评分  7.8/10 from 4783 users
IMDb链接  https://www.imdb.com/title/tt8652728
豆瓣评分 7.2/10 from 925 users
豆瓣链接 https://movie.douban.com/subject/30263576/
片  长 135分钟
导  演 特里·爱德华·沙尔茨 Trey Edward Shults
编  剧 特里·爱德华·沙尔茨 Trey Edward Shults
主  演 卢卡斯·赫奇斯 Lucas Hedges
       斯特林·K·布朗 Sterling K. Brown
       亚历克萨·德米 Alexa Demie
       小克利夫顿·克林斯 Clifton Collins Jr.
       芮妮·戈兹贝里 Renee Goldsberry
       泰勒·拉塞尔 Taylor Russell
       小凯文·哈里森 Kelvin Harrison Jr.
       大卫·加雷利克 David Garelik
       尼尔·哈夫 Neal Huff
       克利夏·费尔柴尔德 Krisha Fairchild
       阿维斯·玛丽·巴尼斯 Avis-Marie Barnes
       Hanna Balicki
       Steve Heinz
       Sidnei Barboza
       Ellen Marguerite Cullivan
       Gene Mack Daniels


标  签 美国 | 恋爱 | 青春 | 音乐 | 剧情 | 2019 | 电影 | A24

简  介  

  卢卡斯·赫奇斯、斯特尔林·K布朗、小凯文·哈里森(《土壤之界》《黑夜造访》)、泰勒·罗素(《忽然七日》《丢失太空》)加盟A24打造的音乐题材新片《浪潮》(Waves),特里·爱德华·沙尔茨(《黑夜造访》《克利夏》)自编自导,下月在佛罗里达州开拍。
  报告两对年轻情侣在感情的雷区中长大和相爱的故事,被描写为“一部布满戏剧性的歌舞片,有着全新的视角,是一首布满活力、动人肺腑确今世青少年生活的颂歌”。影片几近全程与音乐同步,将一些标志性确今世歌曲与奥斯卡得主Trent Reznor&Atticus Ross(《交际收集》《龙纹身的女孩》)的原创配乐连系在一路。

获奖情况  

  第91届美国国家批评协会奖(2019)
  年度佳片

  第35届美国自力精神奖(2020)
  最好女配角(提名) 泰勒·拉塞尔

  第29届哥谭自力电影奖(2019)
  最好影片(提名)
  年度冲破演员 泰勒·拉塞尔

  第32届芝加哥影评人协会奖(2019)
  最具潜力演员(提名) 泰勒·拉塞尔

  第4届亚特兰大影评人协会奖(2019)
  冲破表演奖 小凯文·哈里森
  1. Video
  2. ID                                       : 1
  3. Format                                   : AVC
  4. Format/Info                              : Advanced Video Codec
  5. Format profile                           : [email protected]
  6. Format settings                          : CABAC / 4 Ref Frames
  7. Format settings, CABAC                   : Yes
  8. Format settings, Reference frames        : 4 frames
  9. Codec ID                                 : V_MPEG4/ISO/AVC
  10. Duration                                 : 2 h 15 min
  11. Bit rate mode                            : Variable
  12. Bit rate                                 : 32.0 Mb/s
  13. Maximum bit rate                         : 37.0 Mb/s
  14. Width                                    : 1 920 pixels
  15. Height                                   : 1 080 pixels
  16. Display aspect ratio                     : 16:9
  17. Frame rate mode                          : Constant
  18. Frame rate                               : 23.976 (24000/1001) FPS
  19. Color space                              : YUV
  20. Chroma subsampling                       : 4:2:0
  21. Bit depth                                : 8 bits
  22. Scan type                                : Progressive
  23. Bits/(Pixel*Frame)                       : 0.643
  24. Stream size                              : 30.3 GiB (89%)
  25. Title                                    : Waves.2019.1080p.BluRay.REMUX.AVC.DTS-HD.MA.5.1-FGT
  26. Language                                 : English
  27. Default                                  : No
  28. Forced                                   : No

  29. Audio #1
  30. ID                                       : 2
  31. Format                                   : DTS XLL
  32. Format/Info                              : Digital Theater Systems
  33. Commercial name                          : DTS-HD Master Audio
  34. Codec ID                                 : A_DTS
  35. Duration                                 : 2 h 15 min
  36. Bit rate mode                            : Variable
  37. Bit rate                                 : 3 668 kb/s
  38. Channel(s)                               : 6 channels
  39. Channel layout                           : C L R Ls Rs LFE
  40. Sampling rate                            : 48.0 kHz
  41. Frame rate                               : 93.750 FPS (512 SPF)
  42. Bit depth                                : 24 bits
  43. Compression mode                         : Lossless
  44. Stream size                              : 3.48 GiB (10%)
  45. Title                                    : Waves.2019.1080p.BluRay.REMUX.AVC.DTS-HD.MA.5.1-FGT
  46. Language                                 : English
  47. Default                                  : Yes
  48. Forced                                   : No

  49. Audio #2
  50. ID                                       : 3
  51. Format                                   : AC-3
  52. Format/Info                              : Audio Coding 3
  53. Commercial name                          : Dolby Digital
  54. Codec ID                                 : A_AC3
  55. Duration                                 : 2 h 15 min
  56. Bit rate mode                            : Constant
  57. Bit rate                                 : 192 kb/s
  58. Channel(s)                               : 2 channels
  59. Channel layout                           : L R
  60. Sampling rate                            : 48.0 kHz
  61. Frame rate                               : 31.250 FPS (1536 SPF)
  62. Bit depth                                : 16 bits
  63. Compression mode                         : Lossy
  64. Stream size                              : 186 MiB (1%)
  65. Title                                    : Waves.2019.1080p.BluRay.REMUX.AVC.DTS-HD.MA.5.1-FGT
  66. Language                                 : English
  67. Service kind                             : Complete Main
  68. Default                                  : No
  69. Forced                                   : No

  70. Text #1
  71. ID                                       : 4
  72. Format                                   : UTF-8
  73. Codec ID                                 : S_TEXT/UTF8
  74. Codec ID/Info                            : UTF-8 Plain Text
  75. Duration                                 : 2 h 13 min
  76. Bit rate                                 : 53 b/s
  77. Count of elements                        : 1593
  78. Stream size                              : 52.5 KiB (0%)
  79. Title                                    : English-SRT
  80. Language                                 : English
  81. Default                                  : Yes
  82. Forced                                   : No

  83. Text #2
  84. ID                                       : 5
  85. Format                                   : PGS
  86. Muxing mode                              : zlib
  87. Codec ID                                 : S_HDMV/PGS
  88. Codec ID/Info                            : Picture based subtitle format used on BDs/HD-DVDs
  89. Duration                                 : 2 h 15 min
  90. Bit rate                                 : 38.0 kb/s
  91. Count of elements                        : 3160
  92. Stream size                              : 36.7 MiB (0%)
  93. Title                                    : English-PGS
  94. Language                                 : English
  95. Default                                  : No
  96. Forced                                   : No

  97. Text #3
  98. ID                                       : 6
  99. Format                                   : PGS
  100. Muxing mode                              : zlib
  101. Codec ID                                 : S_HDMV/PGS
  102. Codec ID/Info                            : Picture based subtitle format used on BDs/HD-DVDs
  103. Duration                                 : 2 h 13 min
  104. Bit rate                                 : 25.1 kb/s
  105. Count of elements                        : 2392
  106. Stream size                              : 24.0 MiB (0%)
  107. Title                                    : Spanish-PGS
  108. Language                                 : Spanish
  109. Default                                  : No
  110. Forced                                   : No

  111. Menu
  112. 00:00:00.000                             : en:Chapter 01
  113. 00:07:21.816                             : en:Chapter 02
  114. 00:16:07.049                             : en:Chapter 03
  115. 00:26:52.694                             : en:Chapter 04
  116. 00:34:39.368                             : en:Chapter 05
  117. 00:40:58.205                             : en:Chapter 06
  118. 00:50:10.007                             : en:Chapter 07
  119. 00:55:36.291                             : en:Chapter 08
  120. 01:04:22.608                             : en:Chapter 09
  121. 01:12:01.317                             : en:Chapter 10
  122. 01:18:40.882                             : en:Chapter 11
  123. 01:26:01.865                             : en:Chapter 12
  124. 01:37:00.397                             : en:Chapter 13
  125. 01:43:37.044                             : en:Chapter 14
  126. 01:57:05.435                             : en:Chapter 15
  127. 02:07:17.379                             : en:Chapter 16
复制代码

浪潮 Waves.2019.1080p.BluRay.REMUX.AVC.DTS-HD.MA.5.1-FGT 34.01GB-1.png 浪潮 Waves.2019.1080p.BluRay.REMUX.AVC.DTS-HD.MA.5.1-FGT 34.01GB-3.png 浪潮 Waves.2019.1080p.BluRay.REMUX.AVC.DTS-HD.MA.5.1-FGT 34.01GB-2.png






回复

使用道具 举报

懒得打字嘛,点击右侧快捷回复 【右侧内容,后台自定义】
您需要登录后才可以回帖 登录 | 立即加入

本版积分规则

Archiver|小黑屋| 蓝光电影网 |网站地图

Copyright © 2021 Comsenz Inc. Powered by 蓝光电影网

蓝光电影网

本站内容由用户自主分享和转载自互联网,转载目的在于传递更多信息,并不代表本网赞同其观点和对其真实性负责。

如有侵权、违反国家法律政策行为,请联系我们,我们会第一时间及时清除和处理!

举报反馈邮箱:[email protected]

快速回复 返回顶部 返回列表