找回密码

蓝光电影网

查看: 1622|回复: 7

[REMUX.HEVC] 极速车王 Ford.v.Ferrari.2019.2160p.BluRay.REMUX.HEVC.DTS-HD.MA.TrueHD.7.1.Atmos-FGT 55.65GB

[复制链接]
蓝光币
886
发表于 2020-2-4 12:02:23 | 显示全部楼层 |阅读模式
极速车王 Ford.v.Ferrari.2019.2160p.BluRay.REMUX.HEVC.DTS-HD.MA.TrueHD.7.1.Atmos-FGT 55.65GB-1.png

译  名 极速车王 / Go Like Hell / Kings of the Road / Le Mans '66 / 天堂驾驶 / 极速之王 / 极速传奇:褔特决战法拉利(港) / 福特大战法拉利 / 赛道狂人(台)
片  名 Ford v Ferrari
年  代 2019
产  地 美国 / 法国
类  别 剧情 / 列传 / 活动
语  言 英语 / 意大利语 / 法语 / 日语
上映日期 2019-08-30(特柳赖德电影节) / 2019-11-15(美国)
IMDb评分  8.2/10 from 99717 users
IMDb链接  https://www.imdb.com/title/tt1950186
豆瓣评分 8.5/10 from 31818 users
豆瓣链接 https://movie.douban.com/subject/6538866/
片  长 152分钟
导  演 詹姆斯·曼高德 James Mangold
编  剧 詹姆斯·曼高德 James Mangold / 杰斯·巴特沃斯 Jez Butterworth / 约翰-亨利·巴特沃斯 John-Henry Butterworth / 贾森·凯勒 Jason Keller / A·J·拜梅 A.J. Baime
主  演 马特·达蒙 Matt Damon
       克里斯蒂安·贝尔 Christian Bale
       乔·博恩瑟 Jon Bernthal
       诺亚·尤佩 Noah Jupe
       玛丽萨·佩特罗 Marisa Petroro
       凯特瑞娜·巴尔夫 Caitriona Balfe
       乔什·卢卡斯 Josh Lucas
       雷·迈克金农 Ray McKinnon
       约翰·约瑟夫·菲尔德 JJ Feild
       崔西·莱茨 Tracy Letts
       华莱士·朗翰 Wallace Langham
       乔纳森·拉帕格里拉 Jonathan LaPaglia
       斯特凡 Stefania Spampinato
       鲁道夫·马丁 Rudolf Martin
       拉奇兰·布坎南 Lachlan Buchanan
       瓦德·霍尔顿 Ward Horton
       肖恩·卡里甘 Sean Carrigan
       克里斯托弗·达尔加 Christopher Darga
       亚当·梅菲尔德 Adam Mayfield
       乔瓦尼索罗菲瓦 Giovanni Cirfiera
       乔·威廉森 Joe Williamson
       本杰明·里格比 Benjamin Rigby
       杰克·麦克马伦 Jack McMullen
       保罗·福克斯 Paul Fox
       雷莫·吉罗内 Remo Girone
       德鲁·劳施 Drew Rausch
       朱利安·米勒 Julian Miller
       艾拉姆·奥里安 Aylam Orian
       埃姆利·贝赫什蒂 Emil Beheshti
       蒂芙妮·伊冯娜·考克斯 Tiffany Yvonne Cox
       达林·库珀 Darin Cooper
       科拉多·因韦尔尼齐 Corrado Invernizzi
       特洛伊·迪林格 Troy Dillinger
       彼得·阿佩塞拉 Peter Arpesella
       斯凯勒·马歇尔 Skyler Marshall


标  签 赛车 | 列传 | 美国 | 实在事务改编 | 2019 | 剧情 | 活动 | 行动

简  介  

  基于实在故事,聚焦由汽车设想师卡罗尔·谢尔比率领的一队美国工程师、设想师,以及他旗下的英国车手肯·迈尔斯,亨利·福特二世要求谢尔比打造一辆全新的赛车,希望能在1966年的勒芒天下锦标赛上打败持久占主导职位的法拉利。终极福特GT40在勒芒24小时耐力赛中成功击败法拉利,并连任了1967和1968年的冠军。

获奖情况  

  第92届奥斯卡金像奖(2020)
  最好影片(提名)
  最好剪辑(提名) 迈克尔·麦卡斯克 / 安德鲁·巴克兰
  最好混音(提名) David Giammarco / 史蒂文·莫罗 / 保罗·马瑟
  最好音效剪辑(提名)

  第77届金球奖(2020)
  电影类 剧情片最好男配角(提名) 克里斯蒂安·贝尔

  第73届英国电影学院奖(2020)
  电影奖 最好摄影(提名) 芬顿·帕帕迈可
  电影奖 最好剪辑(提名) 迈克尔·麦卡斯克 / 安德鲁·巴克兰
  电影奖 最好音效(提名)

  第26届美国演员工会奖(2020)
  电影奖 最好男配角(提名) 克里斯蒂安·贝尔
  电影最好特技群戏(提名)

  第31届美国制片野生会奖(2020)
  最好电影制片人奖(提名)

  第34届美国摄影协会奖(2020)
  电影长片最好摄影(提名) 芬顿·帕帕迈可

  第70届美国剪辑工会奖(2020)
  剧情片最好剪辑(提名) 迈克尔·麦卡斯克 / 安德鲁·巴克兰

  第24届美国艺术指导工会奖(2020)
  电影奖 最好历史电影艺术指导(提名) 弗朗索瓦·奥杜伊

  第67届美国音效剪辑协会奖(2020)
  金卷轴奖 最好电影音效剪辑
  金卷轴奖 最好电影对白剪辑(提名)

  第18届美国视觉结果协会奖(2020)
  最好电影帮助视觉结果(提名)

  第56届美国声音结果协会奖(2020)
  真人电影最好音效

  第91届美国国家批评协会奖(2019)
  年度佳片

  第25届美国批评家挑选电影奖(2020)
  最好影片(提名)
  最好行动片(提名)
  最好摄影(提名)
  最好剪辑(提名)
  最好视觉结果(提名)

  第24届金卫星奖(2020)
  电影部分 最好剧情片(提名)
  电影部分 最好导演 詹姆斯·曼高德
  电影部分 剧情片最好男配角 克里斯蒂安·贝尔
  电影部分 最好原创剧本(提名) 杰斯·巴特沃斯 / 约翰-亨利·巴特沃斯 / 贾森·凯勒
  电影部分 最好原创配乐(提名)
  电影部分 最好摄影(提名)
  电影部分 最好视觉结果(提名)
  电影部分 最好剪辑
  电影部分 最好音效
  电影部分 最好美术指导(提名)

  第23届好莱坞电影奖(2019)
  年度导演 詹姆斯·曼高德
  年度剪辑 迈克尔·麦卡斯克 / 安德鲁·巴克兰
  年度音效 David Giammarco / Donald Sylvester / 史蒂文·莫罗 / 保罗·马瑟

  第18届华盛顿影评人协会奖(2019)
  最好剪辑

  第40届伦敦影评人协会奖(2020)
  年度英国/爱尔兰小演员(提名) 诺亚·尤佩

  第23届美国在线影评人协会奖(2020)
  最好剪辑(提名) 迈克尔·麦卡斯克 / 安德鲁·巴克兰
  1. Video
  2. ID                                       : 1
  3. Format                                   : HEVC
  4. Format/Info                              : High Efficiency Video Coding
  5. Format profile                           : Main [email protected]@High
  6. HDR format                               : SMPTE ST 2086, HDR10 compatible
  7. Codec ID                                 : V_MPEGH/ISO/HEVC
  8. Duration                                 : 2 h 32 min
  9. Bit rate                                 : 38.9 Mb/s
  10. Width                                    : 3 840 pixels
  11. Height                                   : 2 160 pixels
  12. Display aspect ratio                     : 16:9
  13. Frame rate mode                          : Constant
  14. Frame rate                               : 23.976 (24000/1001) FPS
  15. Color space                              : YUV
  16. Chroma subsampling                       : 4:2:0 (Type 2)
  17. Bit depth                                : 10 bits
  18. Bits/(Pixel*Frame)                       : 0.196
  19. Stream size                              : 41.5 GiB (75%)
  20. Title                                    : Ford.v.Ferrari.2019.2160p.BluRay.REMUX.HEVC.DTS-HD.MA.TrueHD.7.1.Atmos-FGT
  21. Writing library                          : ATEME Titan File 3.9.0 (4.9.0.0)        
  22. Language                                 : English
  23. Default                                  : No
  24. Forced                                   : No
  25. Color range                              : Limited
  26. Color primaries                          : BT.2020
  27. Transfer characteristics                 : PQ
  28. Matrix coefficients                      : BT.2020 non-constant
  29. Mastering display color primaries        : Display P3
  30. Mastering display luminance              : min: 0.0050 cd/m2, max: 1000 cd/m2

  31. Audio #1
  32. ID                                       : 2
  33. Format                                   : MLP FBA 16-ch
  34. Format/Info                              : Meridian Lossless Packing FBA with 16-channel presentation
  35. Commercial name                          : Dolby TrueHD with Dolby Atmos
  36. Codec ID                                 : A_TRUEHD
  37. Duration                                 : 2 h 32 min
  38. Bit rate mode                            : Variable
  39. Bit rate                                 : 4 561 kb/s
  40. Maximum bit rate                         : 9 933 kb/s
  41. Channel(s)                               : 8 channels
  42. Channel layout                           : L R C LFE Ls Rs Lb Rb
  43. Sampling rate                            : 48.0 kHz
  44. Frame rate                               : 1 200.000 FPS (40 SPF)
  45. Compression mode                         : Lossless
  46. Stream size                              : 4.86 GiB (9%)
  47. Title                                    : Ford.v.Ferrari.2019.2160p.BluRay.REMUX.HEVC.DTS-HD.MA.TrueHD.7.1.Atmos-FGT
  48. Language                                 : English
  49. Default                                  : Yes
  50. Forced                                   : No
  51. Number of dynamic objects                : 13
  52. Bed channel count                        : 1 channel
  53. Bed channel configuration                : LFE

  54. Audio #2
  55. ID                                       : 3
  56. Format                                   : DTS XLL
  57. Format/Info                              : Digital Theater Systems
  58. Commercial name                          : DTS-HD Master Audio
  59. Codec ID                                 : A_DTS
  60. Duration                                 : 2 h 32 min
  61. Bit rate mode                            : Variable
  62. Bit rate                                 : 4 495 kb/s
  63. Channel(s)                               : 8 channels
  64. Channel layout                           : C L R LFE Lb Rb Lss Rss
  65. Sampling rate                            : 48.0 kHz
  66. Frame rate                               : 93.750 FPS (512 SPF)
  67. Bit depth                                : 24 bits
  68. Compression mode                         : Lossless
  69. Stream size                              : 4.79 GiB (9%)
  70. Title                                    : Ford.v.Ferrari.2019.2160p.BluRay.REMUX.HEVC.DTS-HD.MA.TrueHD.7.1.Atmos-FGT
  71. Language                                 : English
  72. Default                                  : No
  73. Forced                                   : No

  74. Audio #3
  75. ID                                       : 4
  76. Format                                   : AC-3
  77. Format/Info                              : Audio Coding 3
  78. Commercial name                          : Dolby Digital
  79. Codec ID                                 : A_AC3
  80. Duration                                 : 2 h 32 min
  81. Bit rate mode                            : Constant
  82. Bit rate                                 : 640 kb/s
  83. Channel(s)                               : 6 channels
  84. Channel layout                           : L R C LFE Ls Rs
  85. Sampling rate                            : 48.0 kHz
  86. Frame rate                               : 31.250 FPS (1536 SPF)
  87. Bit depth                                : 16 bits
  88. Compression mode                         : Lossy
  89. Stream size                              : 699 MiB (1%)
  90. Title                                    : Ford.v.Ferrari.2019.2160p.BluRay.REMUX.HEVC.DTS-HD.MA.TrueHD.7.1.Atmos-FGT
  91. Language                                 : English
  92. Service kind                             : Complete Main
  93. Default                                  : No
  94. Forced                                   : No

  95. Audio #4
  96. ID                                       : 5
  97. Format                                   : AC-3
  98. Format/Info                              : Audio Coding 3
  99. Commercial name                          : Dolby Digital
  100. Codec ID                                 : A_AC3
  101. Duration                                 : 2 h 32 min
  102. Bit rate mode                            : Constant
  103. Bit rate                                 : 448 kb/s
  104. Channel(s)                               : 6 channels
  105. Channel layout                           : L R C LFE Ls Rs
  106. Sampling rate                            : 48.0 kHz
  107. Frame rate                               : 31.250 FPS (1536 SPF)
  108. Bit depth                                : 16 bits
  109. Compression mode                         : Lossy
  110. Stream size                              : 489 MiB (1%)
  111. Title                                    : Ford.v.Ferrari.2019.2160p.BluRay.REMUX.HEVC.DTS-HD.MA.TrueHD.7.1.Atmos-FGT
  112. Language                                 : English
  113. Service kind                             : Complete Main
  114. Default                                  : No
  115. Forced                                   : No

  116. Audio #5
  117. ID                                       : 6
  118. Format                                   : DTS XLL
  119. Format/Info                              : Digital Theater Systems
  120. Commercial name                          : DTS-HD Master Audio
  121. Codec ID                                 : A_DTS
  122. Duration                                 : 2 h 32 min
  123. Bit rate mode                            : Variable
  124. Bit rate                                 : 2 079 kb/s
  125. Channel(s)                               : 2 channels
  126. Channel layout                           : L R
  127. Sampling rate                            : 48.0 kHz
  128. Frame rate                               : 93.750 FPS (512 SPF)
  129. Bit depth                                : 24 bits
  130. Compression mode                         : Lossless
  131. Stream size                              : 2.22 GiB (4%)
  132. Title                                    : Ford.v.Ferrari.2019.2160p.BluRay.REMUX.HEVC.DTS-HD.MA.TrueHD.7.1.Atmos-FGT
  133. Language                                 : English
  134. Default                                  : No
  135. Forced                                   : No

  136. Audio #6
  137. ID                                       : 7
  138. Format                                   : AC-3
  139. Format/Info                              : Audio Coding 3
  140. Commercial name                          : Dolby Digital
  141. Codec ID                                 : A_AC3
  142. Duration                                 : 2 h 32 min
  143. Bit rate mode                            : Constant
  144. Bit rate                                 : 448 kb/s
  145. Channel(s)                               : 6 channels
  146. Channel layout                           : L R C LFE Ls Rs
  147. Sampling rate                            : 48.0 kHz
  148. Frame rate                               : 31.250 FPS (1536 SPF)
  149. Bit depth                                : 16 bits
  150. Compression mode                         : Lossy
  151. Stream size                              : 489 MiB (1%)
  152. Title                                    : Ford.v.Ferrari.2019.2160p.BluRay.REMUX.HEVC.DTS-HD.MA.TrueHD.7.1.Atmos-FGT
  153. Language                                 : Spanish
  154. Service kind                             : Complete Main
  155. Default                                  : No
  156. Forced                                   : No

  157. Audio #7
  158. ID                                       : 8
  159. Format                                   : AC-3
  160. Format/Info                              : Audio Coding 3
  161. Commercial name                          : Dolby Digital
  162. Codec ID                                 : A_AC3
  163. Duration                                 : 2 h 32 min
  164. Bit rate mode                            : Constant
  165. Bit rate                                 : 448 kb/s
  166. Channel(s)                               : 6 channels
  167. Channel layout                           : L R C LFE Ls Rs
  168. Sampling rate                            : 48.0 kHz
  169. Frame rate                               : 31.250 FPS (1536 SPF)
  170. Bit depth                                : 16 bits
  171. Compression mode                         : Lossy
  172. Stream size                              : 489 MiB (1%)
  173. Title                                    : Ford.v.Ferrari.2019.2160p.BluRay.REMUX.HEVC.DTS-HD.MA.TrueHD.7.1.Atmos-FGT
  174. Language                                 : French
  175. Service kind                             : Complete Main
  176. Default                                  : No
  177. Forced                                   : No

  178. Text #1
  179. ID                                       : 9
  180. Format                                   : UTF-8
  181. Codec ID                                 : S_TEXT/UTF8
  182. Codec ID/Info                            : UTF-8 Plain Text
  183. Duration                                 : 1 h 24 min
  184. Bit rate                                 : 0 b/s
  185. Count of elements                        : 9
  186. Stream size                              : 304 Bytes (0%)
  187. Title                                    : English-FORCED-SRT
  188. Language                                 : English
  189. Default                                  : Yes
  190. Forced                                   : Yes

  191. Text #2
  192. ID                                       : 10
  193. Format                                   : UTF-8
  194. Codec ID                                 : S_TEXT/UTF8
  195. Codec ID/Info                            : UTF-8 Plain Text
  196. Duration                                 : 2 h 32 min
  197. Bit rate                                 : 66 b/s
  198. Count of elements                        : 2498
  199. Stream size                              : 74.0 KiB (0%)
  200. Title                                    : English-SRT
  201. Language                                 : English
  202. Default                                  : No
  203. Forced                                   : No

  204. Text #3
  205. ID                                       : 11
  206. Format                                   : PGS
  207. Muxing mode                              : zlib
  208. Codec ID                                 : S_HDMV/PGS
  209. Codec ID/Info                            : Picture based subtitle format used on BDs/HD-DVDs
  210. Duration                                 : 2 h 32 min
  211. Bit rate                                 : 49.8 kb/s
  212. Count of elements                        : 4996
  213. Stream size                              : 54.3 MiB (0%)
  214. Title                                    : English-PGS
  215. Language                                 : English
  216. Default                                  : No
  217. Forced                                   : No

  218. Text #4
  219. ID                                       : 12
  220. Format                                   : PGS
  221. Muxing mode                              : zlib
  222. Codec ID                                 : S_HDMV/PGS
  223. Codec ID/Info                            : Picture based subtitle format used on BDs/HD-DVDs
  224. Duration                                 : 2 h 31 min
  225. Bit rate                                 : 33.2 kb/s
  226. Count of elements                        : 3910
  227. Stream size                              : 36.0 MiB (0%)
  228. Title                                    : Spanish-PGS
  229. Language                                 : Spanish
  230. Default                                  : No
  231. Forced                                   : No

  232. Text #5
  233. ID                                       : 13
  234. Format                                   : PGS
  235. Muxing mode                              : zlib
  236. Codec ID                                 : S_HDMV/PGS
  237. Codec ID/Info                            : Picture based subtitle format used on BDs/HD-DVDs
  238. Duration                                 : 2 h 31 min
  239. Bit rate                                 : 560 b/s
  240. Count of elements                        : 52
  241. Stream size                              : 622 KiB (0%)
  242. Title                                    : Spanish-FORCED-PGS
  243. Language                                 : Spanish
  244. Default                                  : No
  245. Forced                                   : No

  246. Text #6
  247. ID                                       : 14
  248. Format                                   : PGS
  249. Muxing mode                              : zlib
  250. Codec ID                                 : S_HDMV/PGS
  251. Codec ID/Info                            : Picture based subtitle format used on BDs/HD-DVDs
  252. Duration                                 : 2 h 31 min
  253. Bit rate                                 : 34.2 kb/s
  254. Count of elements                        : 4130
  255. Stream size                              : 37.0 MiB (0%)
  256. Title                                    : French-PGS
  257. Language                                 : French
  258. Default                                  : No
  259. Forced                                   : No

  260. Text #7
  261. ID                                       : 15
  262. Format                                   : PGS
  263. Muxing mode                              : zlib
  264. Codec ID                                 : S_HDMV/PGS
  265. Codec ID/Info                            : Picture based subtitle format used on BDs/HD-DVDs
  266. Duration                                 : 2 h 31 min
  267. Bit rate                                 : 433 b/s
  268. Count of elements                        : 38
  269. Stream size                              : 481 KiB (0%)
  270. Title                                    : French-FORCED-PGS
  271. Language                                 : French
  272. Default                                  : No
  273. Forced                                   : No

  274. Text #8
  275. ID                                       : 16
  276. Format                                   : PGS
  277. Muxing mode                              : zlib
  278. Codec ID                                 : S_HDMV/PGS
  279. Codec ID/Info                            : Picture based subtitle format used on BDs/HD-DVDs
  280. Duration                                 : 2 h 31 min
  281. Bit rate                                 : 20.6 kb/s
  282. Count of elements                        : 4136
  283. Stream size                              : 22.4 MiB (0%)
  284. Title                                    : Chinese-PGS
  285. Language                                 : Chinese
  286. Default                                  : No
  287. Forced                                   : No

  288. Text #9
  289. ID                                       : 17
  290. Format                                   : PGS
  291. Muxing mode                              : zlib
  292. Codec ID                                 : S_HDMV/PGS
  293. Codec ID/Info                            : Picture based subtitle format used on BDs/HD-DVDs
  294. Duration                                 : 2 h 31 min
  295. Bit rate                                 : 26.5 kb/s
  296. Count of elements                        : 4108
  297. Stream size                              : 28.8 MiB (0%)
  298. Title                                    : Korean-PGS
  299. Language                                 : Korean
  300. Default                                  : No
  301. Forced                                   : No

  302. Text #10
  303. ID                                       : 18
  304. Format                                   : PGS
  305. Muxing mode                              : zlib
  306. Codec ID                                 : S_HDMV/PGS
  307. Codec ID/Info                            : Picture based subtitle format used on BDs/HD-DVDs
  308. Duration                                 : 2 h 31 min
  309. Bit rate                                 : 28.3 kb/s
  310. Count of elements                        : 4158
  311. Stream size                              : 30.6 MiB (0%)
  312. Title                                    : Chinese-PGS
  313. Language                                 : Chinese
  314. Default                                  : No
  315. Forced                                   : No

  316. Text #11
  317. ID                                       : 19
  318. Format                                   : PGS
  319. Muxing mode                              : zlib
  320. Codec ID                                 : S_HDMV/PGS
  321. Codec ID/Info                            : Picture based subtitle format used on BDs/HD-DVDs
  322. Duration                                 : 1 h 24 min
  323. Bit rate                                 : 158 b/s
  324. Count of elements                        : 18
  325. Stream size                              : 97.7 KiB (0%)
  326. Title                                    : English-FORCED-PGS
  327. Language                                 : English
  328. Default                                  : No
  329. Forced                                   : No

  330. Text #12
  331. ID                                       : 20
  332. Format                                   : PGS
  333. Muxing mode                              : zlib
  334. Codec ID                                 : S_HDMV/PGS
  335. Codec ID/Info                            : Picture based subtitle format used on BDs/HD-DVDs
  336. Duration                                 : 1 h 24 min
  337. Bit rate                                 : 158 b/s
  338. Count of elements                        : 18
  339. Stream size                              : 97.7 KiB (0%)
  340. Title                                    : English-FORCED-PGS
  341. Language                                 : English
  342. Default                                  : No
  343. Forced                                   : No

  344. Menu
  345. 00:00:00.000                             : en:Chapter 01
  346. 00:04:45.285                             : en:Chapter 02
  347. 00:07:32.201                             : en:Chapter 03
  348. 00:10:02.476                             : en:Chapter 04
  349. 00:15:38.979                             : en:Chapter 05
  350. 00:20:14.755                             : en:Chapter 06
  351. 00:21:39.464                             : en:Chapter 07
  352. 00:26:00.559                             : en:Chapter 08
  353. 00:31:57.415                             : en:Chapter 09
  354. 00:34:09.422                             : en:Chapter 10
  355. 00:39:12.933                             : en:Chapter 11
  356. 00:42:06.482                             : en:Chapter 12
  357. 00:45:56.670                             : en:Chapter 13
  358. 00:48:38.290                             : en:Chapter 14
  359. 00:51:21.745                             : en:Chapter 15
  360. 00:55:03.341                             : en:Chapter 16
  361. 00:57:50.467                             : en:Chapter 17
  362. 01:00:26.664                             : en:Chapter 18
  363. 01:06:33.155                             : en:Chapter 19
  364. 01:11:59.481                             : en:Chapter 20
  365. 01:16:13.443                             : en:Chapter 21
  366. 01:19:30.098                             : en:Chapter 22
  367. 01:24:18.136                             : en:Chapter 23
  368. 01:29:24.650                             : en:Chapter 24
  369. 01:33:15.840                             : en:Chapter 25
  370. 01:38:10.968                             : en:Chapter 26
  371. 01:40:57.134                             : en:Chapter 27
  372. 01:43:22.988                             : en:Chapter 28
  373. 01:45:48.592                             : en:Chapter 29
  374. 01:50:38.632                             : en:Chapter 30
  375. 01:53:37.685                             : en:Chapter 31
  376. 01:57:47.268                             : en:Chapter 32
  377. 02:00:16.334                             : en:Chapter 33
  378. 02:05:22.556                             : en:Chapter 34
  379. 02:09:17.750                             : en:Chapter 35
  380. 02:12:01.121                             : en:Chapter 36
  381. 02:15:26.076                             : en:Chapter 37
  382. 02:18:22.711                             : en:Chapter 38
  383. 02:20:45.812                             : en:Chapter 39
  384. 02:26:26.944                             : en:Chapter 40
复制代码

极速车王 Ford.v.Ferrari.2019.2160p.BluRay.REMUX.HEVC.DTS-HD.MA.TrueHD.7.1.Atmos-FGT 55.65GB-2.png 极速车王 Ford.v.Ferrari.2019.2160p.BluRay.REMUX.HEVC.DTS-HD.MA.TrueHD.7.1.Atmos-FGT 55.65GB-3.png 极速车王 Ford.v.Ferrari.2019.2160p.BluRay.REMUX.HEVC.DTS-HD.MA.TrueHD.7.1.Atmos-FGT 55.65GB-4.png






回复

使用道具 举报

蓝光币
7
发表于 2020-2-4 16:42:18 | 显示全部楼层

这东西我收了!谢谢楼主!蓝光电影网真好!
回复 支持 反对

使用道具 举报

蓝光币
860
发表于 2020-2-4 16:53:40 | 显示全部楼层
谢谢楼主无私分享。
回复 支持 反对

使用道具 举报

蓝光币
1786
发表于 2020-2-4 18:06:18 | 显示全部楼层
好%多謝版主的無私發佈分享!
回复 支持 反对

使用道具 举报

蓝光币
187
发表于 2020-2-4 18:47:28 | 显示全部楼层
楼主发贴辛苦了,谢谢楼主分享!我觉得蓝光电影网是注册对了!
回复 支持 反对

使用道具 举报

蓝光币
438
发表于 2020-2-5 14:11:52 | 显示全部楼层

既然你诚信诚意的推荐了,那我就勉为其难的看看吧!蓝光电影网不走平凡路。
回复 支持 反对

使用道具 举报

蓝光币
254
发表于 2020-2-15 10:26:03 | 显示全部楼层

楼主发贴辛苦了,谢谢楼主分享!我觉得蓝光电影网是注册对了!
回复 支持 反对

使用道具 举报

蓝光币
131
发表于 2020-2-17 17:28:34 | 显示全部楼层
楼主发贴辛苦了,谢谢楼主分享!我觉得蓝光电影网是注册对了!
回复 支持 反对

使用道具 举报

懒得打字嘛,点击右侧快捷回复 【右侧内容,后台自定义】
您需要登录后才可以回帖 登录 | 立即加入

本版积分规则

Archiver|小黑屋| 蓝光电影网 |网站地图

Copyright © 2021 Comsenz Inc. Powered by 蓝光电影网

蓝光电影网

本站内容由用户自主分享和转载自互联网,转载目的在于传递更多信息,并不代表本网赞同其观点和对其真实性负责。

如有侵权、违反国家法律政策行为,请联系我们,我们会第一时间及时清除和处理!

举报反馈邮箱:[email protected]

快速回复 返回顶部 返回列表