找回密码

蓝光电影网

查看: 219|回复: 0

[惊悚] 针孔旅社2:前传 Vacancy.2.The.First.Cut.2008.1080p.WEBRip.DDP5.1.x264-MooMa 6.33GB

[复制链接]
蓝光币
886
发表于 2020-2-4 22:33:27 | 显示全部楼层 |阅读模式
针孔旅社2:前传 Vacancy.2.The.First.Cut.2008.1080p.WEBRip.DDP5.1.x264-MooMa 6.33GB-1.png

译  名 针孔旅社2:前传
片  名 Vacancy 2: The First Cut
年  代 2008
产  地 美国
类  别 惊悚 / 可骇
语  言 英语
上映日期 2009-01-20
IMDb评分  5.0/10 from 6912 users
IMDb链接  https://www.imdb.com/title/tt1204979
豆瓣评分 5.2/10 from 1866 users
豆瓣链接 https://movie.douban.com/subject/3075966/
片  长 86 分钟
导  演 Eric Bross
编  剧 Mark L. Smith
主  演 Agnes Bruckner
       David Moscow
       Scott G. Anderson


标  签 惊悚 | 可骇 | 美国 | 犯罪 | 美国电影 | 悬疑 | 可骇电影 | 2009

简  介  

  針孔旅社續集 將回到首集男女配角在旅社中所看到的影帶內容而在影帶中的受害者會遭到若何的下場...
  1. Video
  2. ID                                       : 1
  3. Format                                   : AVC
  4. Format/Info                              : Advanced Video Codec
  5. Format profile                           : [email protected]
  6. Format settings                          : CABAC / 4 Ref Frames
  7. Format settings, CABAC                   : Yes
  8. Format settings, Reference frames        : 4 frames
  9. Codec ID                                 : V_MPEG4/ISO/AVC
  10. Duration                                 : 1 h 26 min
  11. Bit rate mode                            : Variable
  12. Bit rate                                 : 9 645 kb/s
  13. Maximum bit rate                         : 15.0 Mb/s
  14. Width                                    : 1 920 pixels
  15. Height                                   : 1 080 pixels
  16. Display aspect ratio                     : 16:9
  17. Frame rate mode                          : Constant
  18. Frame rate                               : 23.976 (24000/1001) FPS
  19. Color space                              : YUV
  20. Chroma subsampling                       : 4:2:0
  21. Bit depth                                : 8 bits
  22. Scan type                                : Progressive
  23. Bits/(Pixel*Frame)                       : 0.194
  24. Stream size                              : 5.81 GiB (92%)
  25. Writing library                          : x264 core 148 r2623 d5b2374
  26. Encoding settings                        : cabac=1 / ref=4 / deblock=1:-1:-1 / analyse=0x3:0x133 / me=umh / subme=9 / psy=1 / psy_rd=1.00:0.15 / mixed_ref=1 / me_range=24 / chroma_me=1 / trellis=2 / 8x8dct=1 / cqm=0 / deadzone=21,11 / fast_pskip=1 / chroma_qp_offset=-3 / threads=34 / lookahead_threads=5 / sliced_threads=0 / nr=150 / decimate=1 / interlaced=0 / bluray_compat=0 / constrained_intra=0 / bframes=8 / b_pyramid=2 / b_adapt=2 / b_bias=0 / direct=3 / weightb=1 / open_gop=0 / weightp=2 / keyint=120 / keyint_min=61 / scenecut=0 / intra_refresh=0 / rc_lookahead=120 / rc=crf / mbtree=1 / crf=18.0 / qcomp=0.60 / qpmin=0 / qpmax=69 / qpstep=4 / vbv_maxrate=15000 / vbv_bufsize=31250 / crf_max=0.0 / nal_hrd=vbr / filler=0 / ip_ratio=1.40 / aq=3:1.00
  27. Default                                  : Yes
  28. Forced                                   : No
  29. Color range                              : Limited
  30. Color primaries                          : BT.709
  31. Transfer characteristics                 : BT.709
  32. Matrix coefficients                      : BT.709

  33. Audio
  34. ID                                       : 2
  35. Format                                   : E-AC-3
  36. Format/Info                              : Enhanced AC-3
  37. Commercial name                          : Dolby Digital Plus
  38. Codec ID                                 : A_EAC3
  39. Duration                                 : 1 h 26 min
  40. Bit rate mode                            : Constant
  41. Bit rate                                 : 640 kb/s
  42. Channel(s)                               : 6 channels
  43. Channel layout                           : L R C LFE Ls Rs
  44. Sampling rate                            : 48.0 kHz
  45. Frame rate                               : 31.250 FPS (1536 SPF)
  46. Bit depth                                : 32 bits
  47. Compression mode                         : Lossy
  48. Stream size                              : 395 MiB (6%)
  49. Language                                 : English
  50. Service kind                             : Complete Main
  51. Default                                  : Yes
  52. Forced                                   : No
复制代码

针孔旅社2:前传 Vacancy.2.The.First.Cut.2008.1080p.WEBRip.DDP5.1.x264-MooMa 6.33GB-2.png 针孔旅社2:前传 Vacancy.2.The.First.Cut.2008.1080p.WEBRip.DDP5.1.x264-MooMa 6.33GB-3.png 针孔旅社2:前传 Vacancy.2.The.First.Cut.2008.1080p.WEBRip.DDP5.1.x264-MooMa 6.33GB-4.png






回复

使用道具 举报

懒得打字嘛,点击右侧快捷回复 【右侧内容,后台自定义】
您需要登录后才可以回帖 登录 | 立即加入

本版积分规则

Archiver|小黑屋| 蓝光电影网 |网站地图

Copyright © 2021 Comsenz Inc. Powered by 蓝光电影网

蓝光电影网

本站内容由用户自主分享和转载自互联网,转载目的在于传递更多信息,并不代表本网赞同其观点和对其真实性负责。

如有侵权、违反国家法律政策行为,请联系我们,我们会第一时间及时清除和处理!

举报反馈邮箱:[email protected]

快速回复 返回顶部 返回列表