找回密码

蓝光电影网

查看: 268|回复: 0

[恐怖] 永恒的血 Eternal.Blood.2002.SPANISH.1080p.WEBRip.AAC2.0.x264-MooMa 2.05GB

[复制链接]
蓝光币
1022
发表于 2020-2-4 23:23:13 | 显示全部楼层 |阅读模式
永久的血 Eternal.Blood.2002.SPANISH.1080p.WEBRip.AAC2.0.x264-MooMa 2.05GB-1.png

译  名 永久的血 / Eternal Blood / 冥界魔婴
片  名 Sangre eterna
产  地 智利
上映日期 2002
IMDb评分  4.4/10 from 681 users
IMDb链接  https://www.imdb.com/title/tt0287665
豆瓣评分 0/10 from 0 users
豆瓣链接 https://movie.douban.com/subject/5352048/
导  演 Jorge Olguin

标  签 可骇 | 国外电影 | 西班牙电影 | 正鄙人 | 嘟嘟娘 | Cult

简  介  

  暂无相关剧情先容
  1. Video
  2. ID                                       : 1
  3. Format                                   : AVC
  4. Format/Info                              : Advanced Video Codec
  5. Format profile                           : [email protected]
  6. Format settings                          : CABAC / 4 Ref Frames
  7. Format settings, CABAC                   : Yes
  8. Format settings, Reference frames        : 4 frames
  9. Codec ID                                 : V_MPEG4/ISO/AVC
  10. Duration                                 : 1 h 44 min
  11. Bit rate                                 : 2 652 kb/s
  12. Width                                    : 1 920 pixels
  13. Height                                   : 1 080 pixels
  14. Display aspect ratio                     : 16:9
  15. Frame rate mode                          : Constant
  16. Frame rate                               : 30.000 FPS
  17. Color space                              : YUV
  18. Chroma subsampling                       : 4:2:0
  19. Bit depth                                : 8 bits
  20. Scan type                                : Progressive
  21. Bits/(Pixel*Frame)                       : 0.043
  22. Stream size                              : 1.93 GiB (94%)
  23. Writing library                          : x264 core 148 r2 a01e339
  24. Encoding settings                        : cabac=1 / ref=3 / deblock=1:0:0 / analyse=0x3:0x113 / me=hex / subme=7 / psy=1 / psy_rd=1.00:0.00 / mixed_ref=1 / me_range=16 / chroma_me=1 / trellis=1 / 8x8dct=1 / cqm=0 / deadzone=21,11 / fast_pskip=1 / chroma_qp_offset=-2 / threads=4 / lookahead_threads=1 / sliced_threads=0 / nr=0 / decimate=1 / interlaced=0 / bluray_compat=0 / constrained_intra=0 / bframes=3 / b_pyramid=2 / b_adapt=1 / b_bias=0 / direct=1 / weightb=1 / open_gop=0 / weightp=2 / keyint=60 / keyint_min=31 / scenecut=0 / intra_refresh=0 / rc_lookahead=40 / rc=crf / mbtree=1 / crf=23.0 / qcomp=0.60 / qpmin=0 / qpmax=69 / qpstep=4 / vbv_maxrate=5000 / vbv_bufsize=5000 / crf_max=0.0 / nal_hrd=none / filler=0 / ip_ratio=1.40 / aq=1:1.00
  25. Default                                  : Yes
  26. Forced                                   : No

  27. Audio
  28. ID                                       : 2
  29. Format                                   : AAC LC
  30. Format/Info                              : Advanced Audio Codec Low Complexity
  31. Codec ID                                 : A_AAC-2
  32. Duration                                 : 1 h 44 min
  33. Bit rate                                 : 165 kb/s
  34. Channel(s)                               : 2 channels
  35. Channel layout                           : L R
  36. Sampling rate                            : 48.0 kHz
  37. Frame rate                               : 46.875 FPS (1024 SPF)
  38. Compression mode                         : Lossy
  39. Stream size                              : 123 MiB (6%)
  40. Language                                 : Spanish
  41. Default                                  : Yes
  42. Forced                                   : No

  43. Text
  44. ID                                       : 3
  45. Format                                   : UTF-8
  46. Codec ID                                 : S_TEXT/UTF8
  47. Codec ID/Info                            : UTF-8 Plain Text
  48. Duration                                 : 1 h 39 min
  49. Bit rate                                 : 27 b/s
  50. Count of elements                        : 688
  51. Stream size                              : 19.8 KiB (0%)
  52. Language                                 : English
  53. Default                                  : Yes
  54. Forced                                   : No
复制代码

永久的血 Eternal.Blood.2002.SPANISH.1080p.WEBRip.AAC2.0.x264-MooMa 2.05GB-2.png 永久的血 Eternal.Blood.2002.SPANISH.1080p.WEBRip.AAC2.0.x264-MooMa 2.05GB-3.png 永久的血 Eternal.Blood.2002.SPANISH.1080p.WEBRip.AAC2.0.x264-MooMa 2.05GB-4.png






回复

使用道具 举报

懒得打字嘛,点击右侧快捷回复 【右侧内容,后台自定义】
您需要登录后才可以回帖 登录 | 立即加入

本版积分规则

Archiver|小黑屋| 蓝光电影网 |网站地图

Copyright © 2021 Comsenz Inc. Powered by 蓝光电影网

蓝光电影网

本站内容由用户自主分享和转载自互联网,转载目的在于传递更多信息,并不代表本网赞同其观点和对其真实性负责。

如有侵权、违反国家法律政策行为,请联系我们,我们会第一时间及时清除和处理!

举报反馈邮箱:[email protected]

快速回复 返回顶部 返回列表