找回密码

蓝光电影网

查看: 681|回复: 0

[科幻] 眼镜王蛇/异蟒狂袭 King.Cobra.1998.1080p.WEBRip.DD5.1.x264-MooMa 7.24GB

[复制链接]
蓝光币
886
发表于 2020-2-4 23:25:03 | 显示全部楼层 |阅读模式
眼镜王蛇/异蟒狂袭 King.Cobra.1998.1080p.WEBRip.DD5.1.x264-MooMa 7.24GB-1.png

译  名 眼镜王蛇 / 异蟒狂袭
片  名 King Cobra
年  代 1999
产  地 美国
类  别 科幻 / 惊悚 / 可骇
语  言 英语 / 西班牙语
上映日期 1999-04-27
IMDb评分  3.1/10 from 2025 users
IMDb链接  https://www.imdb.com/title/tt0138797
豆瓣评分 4.9/10 from 104 users
豆瓣链接 https://movie.douban.com/subject/1292650/
片  长 93 分钟
导  演 David Hillenbrand / Scott Hillenbrand
编  剧 David Hillenbrand / Scott Hillenbrand

标  签 蛇 | 可骇 | 惊悚 | 美国 | 科幻 | 美国电影 | 电影 | 1999

简  介  

  动物的气力是不容轻忽的,剧中的「大配角」-大蟒蛇即是一例。一次不妥且布满野心的动物尝试后,大蟒蛇并静静地来到这个天下。它静静地划地为王,逐一吞食菲尔摩小镇的居民。居民发急、惧怕、手足无措……片中布满了对自然万物的各种省思,也将为您展现人性的贪心、善良及求保存奋门的气力!全剧虽以大蟒蛇为配角,但片中将带给您更多耐人寻味的感官新享用……请您摒息观赏因堕入「大蟒蛇」的恐惧中吧!
  1. Video
  2. ID                                       : 1
  3. Format                                   : AVC
  4. Format/Info                              : Advanced Video Codec
  5. Format profile                           : [email protected]
  6. Format settings                          : CABAC / 4 Ref Frames
  7. Format settings, CABAC                   : Yes
  8. Format settings, Reference frames        : 4 frames
  9. Codec ID                                 : V_MPEG4/ISO/AVC
  10. Duration                                 : 1 h 33 min
  11. Bit rate mode                            : Variable
  12. Bit rate                                 : 10.7 Mb/s
  13. Maximum bit rate                         : 15.0 Mb/s
  14. Width                                    : 1 920 pixels
  15. Height                                   : 1 080 pixels
  16. Display aspect ratio                     : 16:9
  17. Frame rate mode                          : Constant
  18. Frame rate                               : 23.976 (24000/1001) FPS
  19. Color space                              : YUV
  20. Chroma subsampling                       : 4:2:0
  21. Bit depth                                : 8 bits
  22. Scan type                                : Progressive
  23. Bits/(Pixel*Frame)                       : 0.215
  24. Stream size                              : 6.99 GiB (97%)
  25. Writing library                          : x264 core 148 r2623 d5b2374
  26. Encoding settings                        : cabac=1 / ref=4 / deblock=1:-1:-1 / analyse=0x3:0x133 / me=umh / subme=9 / psy=1 / psy_rd=1.00:0.15 / mixed_ref=1 / me_range=24 / chroma_me=1 / trellis=2 / 8x8dct=1 / cqm=0 / deadzone=21,11 / fast_pskip=1 / chroma_qp_offset=-3 / threads=34 / lookahead_threads=5 / sliced_threads=0 / nr=150 / decimate=1 / interlaced=0 / bluray_compat=0 / constrained_intra=0 / bframes=8 / b_pyramid=2 / b_adapt=2 / b_bias=0 / direct=3 / weightb=1 / open_gop=0 / weightp=2 / keyint=120 / keyint_min=61 / scenecut=0 / intra_refresh=0 / rc_lookahead=120 / rc=crf / mbtree=1 / crf=18.0 / qcomp=0.60 / qpmin=0 / qpmax=69 / qpstep=4 / vbv_maxrate=15000 / vbv_bufsize=31250 / crf_max=0.0 / nal_hrd=vbr / filler=0 / ip_ratio=1.40 / aq=3:1.00
  27. Language                                 : English
  28. Default                                  : Yes
  29. Forced                                   : No
  30. Color range                              : Limited
  31. Color primaries                          : BT.709
  32. Transfer characteristics                 : BT.709
  33. Matrix coefficients                      : BT.709

  34. Audio
  35. ID                                       : 2
  36. Format                                   : AC-3
  37. Format/Info                              : Audio Coding 3
  38. Commercial name                          : Dolby Digital
  39. Codec ID                                 : A_AC3
  40. Duration                                 : 1 h 33 min
  41. Bit rate mode                            : Constant
  42. Bit rate                                 : 384 kb/s
  43. Channel(s)                               : 6 channels
  44. Channel layout                           : L R C LFE Ls Rs
  45. Sampling rate                            : 48.0 kHz
  46. Frame rate                               : 31.250 FPS (1536 SPF)
  47. Bit depth                                : 16 bits
  48. Compression mode                         : Lossy
  49. Stream size                              : 257 MiB (3%)
  50. Language                                 : English
  51. Service kind                             : Complete Main
  52. Default                                  : Yes
  53. Forced                                   : No
复制代码

眼镜王蛇/异蟒狂袭 King.Cobra.1998.1080p.WEBRip.DD5.1.x264-MooMa 7.24GB-2.png 眼镜王蛇/异蟒狂袭 King.Cobra.1998.1080p.WEBRip.DD5.1.x264-MooMa 7.24GB-3.png 眼镜王蛇/异蟒狂袭 King.Cobra.1998.1080p.WEBRip.DD5.1.x264-MooMa 7.24GB-4.png






回复

使用道具 举报

懒得打字嘛,点击右侧快捷回复 【右侧内容,后台自定义】
您需要登录后才可以回帖 登录 | 立即加入

本版积分规则

Archiver|小黑屋| 蓝光电影网 |网站地图

Copyright © 2021 Comsenz Inc. Powered by 蓝光电影网

蓝光电影网

本站内容由用户自主分享和转载自互联网,转载目的在于传递更多信息,并不代表本网赞同其观点和对其真实性负责。

如有侵权、违反国家法律政策行为,请联系我们,我们会第一时间及时清除和处理!

举报反馈邮箱:[email protected]

快速回复 返回顶部 返回列表