找回密码

查看: 5820|回复: 20

[剧情] 颤栗汪洋2 Open.Water.2.Adrift.2006.1080p.BluRay.x264.DTS-FGT 7.95GB

[复制链接]
蓝光币
2027
发表于 2021-1-28 00:11:56 | 显示全部楼层 |阅读模式
战栗汪洋2 Open.Water.2.Adrift.2006.1080p.BluRay.x264.DTS-FGT 7.95GB-1.jpg


译  名 战栗汪洋2

片  名 Open Water 2: Adrift

年  代 2006

国  家 德国

类  别 剧情/惊悚

语  言 英语/法语

上映日期 2006-08-03

IMDb评分  5.1/10 from 13,302 users

IMDb链接  http://www.imdb.com/title/tt0470055/

豆瓣评分 6.5/10 from 934 users

豆瓣链接 https://movie.douban.com/subject/1905634/

片  长 USA: 94 分钟/UK: 95 分钟

导  演 Hans Horn

主  演 Kelly Wagner

      苏珊·梅·普拉特

      Eric Dane




简  介




  一帮老友驾驶一艘奢华游艇出海为好友庆生,酒足饭饱以后,大师起头一个个跳入海中泅水。得了恐水症的艾米(苏珊·梅·普拉特 Susan May Pratt 饰)被抛入海水以后引发一阵可骇,大师想赶紧把她送回船上,可是这才发现居然没人记得放下梯子。船身太高,一伙人想尽法子都不能爬上船去。此时,留在船上的只要一个婴儿,蓝天碧海对于悬浮于海面的六个老友来说酿成了绝境,灭亡的阴影在尽是发急的人们之间敏捷舒展。看着好友一个个死去,一息尚存的人们仍然在寻觅着最初的朝气。暮色将至,一场狂风雨行未到临,能否有人可以穿越灭亡的阴霾爬上游艇,生与死的较劲在茫茫海面悲情上演。

  1. Video
  2. ID                                       : 1
  3. Format                                   : AVC
  4. Format/Info                              : Advanced Video Codec
  5. Format profile                           : High@L4
  6. Format settings, CABAC                   : Yes
  7. Format settings, ReFrames                : 5 frames
  8. Codec ID                                 : V_MPEG4/ISO/AVC
  9. Duration                                 : 1h 34mn
  10. Bit rate                                 : 10.5 Mbps
  11. Width                                    : 1 920 pixels
  12. Height                                   : 816 pixels
  13. Display aspect ratio                     : 2.35:1
  14. Frame rate mode                          : Constant
  15. Frame rate                               : 23.976 (24000/1001) fps
  16. Color space                              : YUV
  17. Chroma subsampling                       : 4:2:0
  18. Bit depth                                : 8 bits
  19. Scan type                                : Progressive
  20. Bits/(Pixel*Frame)                       : 0.280
  21. Stream size                              : 6.79 GiB (85%)
  22. Writing library                          : x264 core 104 r1703 cd21d05
  23. Encoding settings                        : cabac=1 / ref=5 / deblock=1:-1:-1 / analyse=0x3:0x113 / me=umh / subme=8 / psy=1 / psy_rd=1.00:0.00 / mixed_ref=1 / me_range=16 / chroma_me=1 / trellis=1 / 8x8dct=1 / cqm=0 / deadzone=21,11 / fast_pskip=0 / chroma_qp_offset=-2 / threads=12 / sliced_threads=0 / nr=0 / decimate=1 / interlaced=0 / constrained_intra=0 / bframes=3 / b_pyramid=2 / b_adapt=1 / b_bias=0 / direct=3 / weightb=1 / open_gop=0 / weightp=2 / keyint=250 / keyint_min=23 / scenecut=40 / intra_refresh=0 / rc_lookahead=40 / rc=2pass / mbtree=1 / bitrate=10513 / ratetol=1.0 / qcomp=0.60 / qpmin=10 / qpmax=51 / qpstep=4 / cplxblur=20.0 / qblur=0.5 / ip_ratio=1.40 / aq=1:1.10
  24. Language                                 : English
  25. Default                                  : No
  26. Forced                                   : No

  27. Audio
  28. ID                                       : 2
  29. Format                                   : DTS
  30. Format/Info                              : Digital Theater Systems
  31. Mode                                     : 16
  32. Format settings, Endianness              : Big
  33. Codec ID                                 : A_DTS
  34. Duration                                 : 1h 34mn
  35. Bit rate mode                            : Constant
  36. Bit rate                                 : 1 509 Kbps
  37. Channel(s)                               : 6 channels
  38. Channel positions                        : Front: L C R, Side: L R, LFE
  39. Sampling rate                            : 48.0 KHz
  40. Frame rate                               : 93.750 fps (512 spf)
  41. Bit depth                                : 16 bits
  42. Compression mode                         : Lossy
  43. Stream size                              : 1 021 MiB (13%)
  44. Language                                 : English
  45. Default                                  : Yes
  46. Forced                                   : No

  47. Text
  48. ID                                       : 3
  49. Format                                   : UTF-8
  50. Codec ID                                 : S_TEXT/UTF8
  51. Codec ID/Info                            : UTF-8 Plain Text
  52. Language                                 : English
  53. Default                                  : Yes
  54. Forced                                   : No
复制代码

战栗汪洋2 Open.Water.2.Adrift.2006.1080p.BluRay.x264.DTS-FGT 7.95GB-2.png 战栗汪洋2 Open.Water.2.Adrift.2006.1080p.BluRay.x264.DTS-FGT 7.95GB-3.png
战栗汪洋2 Open.Water.2.Adrift.2006.1080p.BluRay.x264.DTS-FGT 7.95GB-4.png 战栗汪洋2 Open.Water.2.Adrift.2006.1080p.BluRay.x264.DTS-FGT 7.95GB-5.png
战栗汪洋2 Open.Water.2.Adrift.2006.1080p.BluRay.x264.DTS-FGT 7.95GB-6.png 战栗汪洋2 Open.Water.2.Adrift.2006.1080p.BluRay.x264.DTS-FGT 7.95GB-7.png





回复

使用道具 举报

蓝光币
229
发表于 2021-1-28 00:33:55 | 显示全部楼层

这个帖子不回对不起自己!我想我是一天也不能离开蓝光电影网
回复

使用道具 举报

蓝光币
814
发表于 2021-1-28 08:22:53 | 显示全部楼层
谢谢楼主无私分享。
回复

使用道具 举报

蓝光币
743
发表于 2021-1-28 08:36:54 | 显示全部楼层

这个帖子不回对不起自己!我想我是一天也不能离开蓝光电影网
回复

使用道具 举报

蓝光币
122
发表于 2021-1-28 09:07:53 | 显示全部楼层
楼主发贴辛苦了,谢谢楼主分享!我觉得蓝光电影网是注册对了!
回复

使用道具 举报

蓝光币
577
发表于 2021-1-28 09:09:14 | 显示全部楼层
楼主发贴辛苦了,谢谢楼主分享!我觉得蓝光电影网是注册对了!
回复

使用道具 举报

蓝光币
708
发表于 2021-1-28 15:41:36 | 显示全部楼层
楼主发贴辛苦了,谢谢楼主分享!我觉得蓝光电影网是注册对了!
回复

使用道具 举报

蓝光币
702
发表于 2021-1-29 18:45:53 | 显示全部楼层
楼主发贴辛苦了,谢谢楼主分享!我觉得蓝光电影网是注册对了!
回复

使用道具 举报

蓝光币
3460
发表于 2021-1-29 21:12:46 | 显示全部楼层
楼主发贴辛苦了,谢谢楼主分享!我觉得蓝光电影网是注册对了!
回复

使用道具 举报

蓝光币
2094
发表于 2021-5-1 10:29:00 | 显示全部楼层

既然你诚信诚意的推荐了,那我就勉为其难的看看吧!蓝光电影网不走平凡路。
回复

使用道具 举报

懒得打字嘛,点击右侧快捷回复 【右侧内容,后台自定义】
您需要登录后才可以回帖 登录 | 立即加入

本版积分规则

Archiver| |网站地图

Copyright © 2024 Comsenz Inc. Powered by 蓝光电影网

本站内容由用户自主分享和转载自互联网,转载目的在于传递更多信息,并不代表本网赞同其观点和对其真实性负责。

如有侵权、违反国家法律政策行为,请联系我们,我们会第一时间及时清除和处理!

举报反馈邮箱:4k1080.com@gmail.com

快速回复 返回顶部 返回列表