找回密码

查看: 1393|回复: 0

[UHD.HEVC] 第一滴血4 Rambo.2008.EXTENDED.2160p.BluRay.REMUX.HEVC.DTS-HD.MA.TrueHD.7.1.Atmos-FGT 41.18GB

[复制链接]
蓝光币
1840
发表于 2019-8-27 08:19:56 | 显示全部楼层 |阅读模式


◎译  名 第一滴血4 / John Rambo / RAMBO 热血回归 / Rambo IV / Rambo The Fight Continues / 兰博4 / 第四滴血
◎片  名 Rambo
◎年  代 2008
◎产  地 美国 / 德国
◎类  别 行动 / 惊悚
◎语  言 英语 / 缅甸语 / 泰语
◎上映日期 2008-01-25(美国)
◎IMDb评分  7.0/10 from 203587 users
◎IMDb链接  http://www.imdb.com/title/tt0462499
◎豆瓣评分 7.3/10 from 32676 users
◎豆瓣链接 https://movie.douban.com/subject/1440855/
◎片  长 92分钟
◎导  演 Sylvester Stallone
◎编  剧 Art Monterastelli / Sylvester Stallone / David Morrell
◎主  演 西尔维斯特·史泰龙 Sylvester Stallone
       朱莉·本茨 Julie Benz
       马修·马斯登 Matthew Marsden
       Graham McTavish
       Reynaldo Gallegos

◎标  签 行动 | 史泰龙 | 美国 | 战争 | 美国电影 | Rambo | 2008 | 兰博4
◎简  介  
  军政府统治下的缅甸,其西部由于包含丰富资本而被军队觊觎多年,那边的儿童经常被军队强征参军,针对平民的屠杀已经成了部分甲士的文娱……一支教会义工小队为了进入该地域向难民供给人性主义帮助,在泰国找到了隐居的兰博(西尔维斯特?史泰龙 Sylvester Stallone 饰),希望熟悉河流的后者供给帮助。兰博以为时势没有改变的能够,拒绝领路,但终被义工莎拉(Julie Benz 饰)的诚意感动,将他们投递。
  岂料这支义工小队在村落中遭到军队的攻击,生还者全数被掳走。教会得悉义工们身陷险境,构造雇佣军救援,并再次拜托兰博领路,这一次,兰博的态度发生了改变,他率领雇佣兵们潜入缅甸军营,又一次化身热血战士。
  1. Video #1
  2. ID                                       : 1
  3. Format                                   : HEVC
  4. Format/Info                              : High Efficiency Video Coding
  5. Format profile                           : Main [email protected]@High
  6. HDR format                               : SMPTE ST 2086, HDR10 compatible
  7. Codec ID                                 : V_MPEGH/ISO/HEVC
  8. Duration                                 : 1 h 39 min
  9. Bit rate                                 : 42.0 Mb/s
  10. Width                                    : 3 840 pixels
  11. Height                                   : 2 160 pixels
  12. Display aspect ratio                     : 16:9
  13. Frame rate mode                          : Constant
  14. Frame rate                               : 23.976 (24000/1001) FPS
  15. Color space                              : YUV
  16. Chroma subsampling                       : 4:2:0 (Type 2)
  17. Bit depth                                : 10 bits
  18. Bits/(Pixel*Frame)                       : 0.211
  19. Stream size                              : 29.2 GiB (71%)
  20. Title                                    : Rambo.2008.EXTENDED.2160p.BluRay.REMUX.HEVC.DTS-HD.MA.TrueHD.7.1.Atmos-FGT
  21. Language                                 : English
  22. Default                                  : Yes
  23. Forced                                   : No
  24. Color range                              : Limited
  25. Color primaries                          : BT.2020
  26. Transfer characteristics                 : PQ
  27. Matrix coefficients                      : BT.2020 non-constant
  28. Mastering display color primaries        : Display P3
  29. Mastering display luminance              : min: 0.0010 cd/m2, max: 1000 cd/m2
  30. Maximum Content Light Level              : 1000 cd/m2
  31. Maximum Frame-Average Light Level        : 932 cd/m2
  32. Video #2
  33. ID                                       : 2
  34. Format                                   : HEVC
  35. Format/Info                              : High Efficiency Video Coding
  36. Format profile                           : Main [email protected]@High
  37. HDR format                               : SMPTE ST 2086, HDR10 compatible
  38. Codec ID                                 : V_MPEGH/ISO/HEVC
  39. Duration                                 : 1 h 39 min
  40. Bit rate                                 : 6 029 kb/s
  41. Width                                    : 1 920 pixels
  42. Height                                   : 1 080 pixels
  43. Display aspect ratio                     : 16:9
  44. Frame rate mode                          : Constant
  45. Frame rate                               : 23.976 (24000/1001) FPS
  46. Color space                              : YUV
  47. Chroma subsampling                       : 4:2:0 (Type 2)
  48. Bit depth                                : 10 bits
  49. Bits/(Pixel*Frame)                       : 0.121
  50. Stream size                              : 4.18 GiB (10%)
  51. Title                                    : Rambo.2008.EXTENDED.2160p.BluRay.REMUX.HEVC.DTS-HD.MA.TrueHD.7.1.Atmos-FGT
  52. Default                                  : No
  53. Forced                                   : No
  54. Color range                              : Limited
  55. Color primaries                          : BT.2020
  56. Transfer characteristics                 : PQ
  57. Matrix coefficients                      : BT.2020 non-constant
  58. Mastering display color primaries        : Display P3
  59. Mastering display luminance              : min: 0.0010 cd/m2, max: 1000 cd/m2
  60. Audio #1
  61. ID                                       : 3
  62. Format                                   : MLP FBA 16-ch
  63. Format/Info                              : Meridian Lossless Packing FBA with 16-channel presentation
  64. Commercial name                          : Dolby TrueHD with Dolby Atmos
  65. Codec ID                                 : A_TRUEHD
  66. Duration                                 : 1 h 39 min
  67. Bit rate mode                            : Variable
  68. Bit rate                                 : 5 671 kb/s
  69. Maximum bit rate                         : 8 955 kb/s
  70. Channel(s)                               : 8 channels
  71. Channel layout                           : L R C LFE Ls Rs Lb Rb
  72. Sampling rate                            : 48.0 kHz
  73. Frame rate                               : 1 200.000 FPS (40 SPF)
  74. Compression mode                         : Lossless
  75. Stream size                              : 3.93 GiB (10%)
  76. Title                                    : Rambo.2008.EXTENDED.2160p.BluRay.REMUX.HEVC.DTS-HD.MA.TrueHD.7.1.Atmos-FGT
  77. Language                                 : English
  78. Default                                  : Yes
  79. Forced                                   : No
  80. Number of dynamic objects                : 15
  81. Bed channel count                        : 1 channel
  82. Bed channel configuration                : LFE
  83. Audio #2
  84. ID                                       : 4
  85. Format                                   : DTS XLL
  86. Format/Info                              : Digital Theater Systems
  87. Commercial name                          : DTS-HD Master Audio
  88. Codec ID                                 : A_DTS
  89. Duration                                 : 1 h 39 min
  90. Bit rate mode                            : Variable
  91. Bit rate                                 : 4 915 kb/s
  92. Channel(s)                               : 8 channels
  93. Channel layout                           : C L R LFE Lb Rb Lss Rss
  94. Sampling rate                            : 48.0 kHz
  95. Frame rate                               : 93.750 FPS (512 SPF)
  96. Bit depth                                : 24 bits
  97. Compression mode                         : Lossless
  98. Stream size                              : 3.41 GiB (8%)
  99. Title                                    : Rambo.2008.EXTENDED.2160p.BluRay.REMUX.HEVC.DTS-HD.MA.TrueHD.7.1.Atmos-FGT
  100. Language                                 : English
  101. Default                                  : No
  102. Forced                                   : No
  103. Audio #3
  104. ID                                       : 5
  105. Format                                   : AC-3
  106. Format/Info                              : Audio Coding 3
  107. Commercial name                          : Dolby Digital
  108. Codec ID                                 : A_AC3
  109. Duration                                 : 1 h 39 min
  110. Bit rate mode                            : Constant
  111. Bit rate                                 : 640 kb/s
  112. Channel(s)                               : 6 channels
  113. Channel layout                           : L R C LFE Ls Rs
  114. Sampling rate                            : 48.0 kHz
  115. Frame rate                               : 31.250 FPS (1536 SPF)
  116. Bit depth                                : 16 bits
  117. Compression mode                         : Lossy
  118. Stream size                              : 454 MiB (1%)
  119. Title                                    : Rambo.2008.EXTENDED.2160p.BluRay.REMUX.HEVC.DTS-HD.MA.TrueHD.7.1.Atmos-FGT
  120. Language                                 : English
  121. Service kind                             : Complete Main
  122. Default                                  : No
  123. Forced                                   : No
  124. Text #1
  125. ID                                       : 6
  126. Format                                   : UTF-8
  127. Codec ID                                 : S_TEXT/UTF8
  128. Codec ID/Info                            : UTF-8 Plain Text
  129. Duration                                 : 1 h 25 min
  130. Bit rate                                 : 29 b/s
  131. Count of elements                        : 562
  132. Stream size                              : 18.3 KiB (0%)
  133. Title                                    : English-SRT
  134. Language                                 : English
  135. Default                                  : Yes
  136. Forced                                   : No
  137. Text #2
  138. ID                                       : 7
  139. Format                                   : PGS
  140. Muxing mode                              : zlib
  141. Codec ID                                 : S_HDMV/PGS
  142. Codec ID/Info                            : Picture based subtitle format used on BDs/HD-DVDs
  143. Duration                                 : 1 h 25 min
  144. Bit rate                                 : 19.1 kb/s
  145. Count of elements                        : 1124
  146. Stream size                              : 11.7 MiB (0%)
  147. Title                                    : English-PGS
  148. Language                                 : English
  149. Default                                  : No
  150. Forced                                   : No
  151. Text #3
  152. ID                                       : 8
  153. Format                                   : PGS
  154. Muxing mode                              : zlib
  155. Codec ID                                 : S_HDMV/PGS
  156. Codec ID/Info                            : Picture based subtitle format used on BDs/HD-DVDs
  157. Duration                                 : 1 h 25 min
  158. Bit rate                                 : 23.1 kb/s
  159. Count of elements                        : 1426
  160. Stream size                              : 14.1 MiB (0%)
  161. Title                                    : English-SDH-PGS
  162. Language                                 : English
  163. Default                                  : No
  164. Forced                                   : No
  165. Text #4
  166. ID                                       : 9
  167. Format                                   : PGS
  168. Muxing mode                              : zlib
  169. Codec ID                                 : S_HDMV/PGS
  170. Codec ID/Info                            : Picture based subtitle format used on BDs/HD-DVDs
  171. Duration                                 : 1 h 25 min
  172. Bit rate                                 : 19.3 kb/s
  173. Count of elements                        : 1320
  174. Stream size                              : 11.8 MiB (0%)
  175. Title                                    : Spanish-PGS
  176. Language                                 : Spanish
  177. Default                                  : No
  178. Forced                                   : No
  179. Menu
  180. 00:00:00.000                             : en:Chapter 01
  181. 00:06:04.197                             : en:Chapter 02
  182. 00:11:33.359                             : en:Chapter 03
  183. 00:22:41.735                             : en:Chapter 04
  184. 00:28:31.543                             : en:Chapter 05
  185. 00:33:17.662                             : en:Chapter 06
  186. 00:42:31.966                             : en:Chapter 07
  187. 00:47:26.134                             : en:Chapter 08
  188. 00:52:06.790                             : en:Chapter 09
  189. 00:59:18.012                             : en:Chapter 10
  190. 01:03:30.848                             : en:Chapter 11
  191. 01:08:02.953                             : en:Chapter 12
  192. 01:13:43.460                             : en:Chapter 13
  193. 01:19:02.195                             : en:Chapter 14
  194. 01:24:37.238                             : en:Chapter 15
  195. 01:27:17.523                             : en:Chapter 16
复制代码






                                       
                                       

                                       
                                       
                                       




回复

使用道具 举报

懒得打字嘛,点击右侧快捷回复 【右侧内容,后台自定义】
您需要登录后才可以回帖 登录 | 立即加入

本版积分规则

Copyright © 2024 Comsenz Inc. Powered by 蓝光电影网

本站内容由用户自主分享和转载自互联网,转载目的在于传递更多信息,并不代表本网赞同其观点和对其真实性负责。

如有侵权、违反国家法律政策行为,请联系我们,我们会第一时间及时清除和处理!

举报反馈邮箱:4k1080.com@gmail.com

快速回复 返回顶部 返回列表