找回密码

查看: 1438|回复: 1

[UHD.HEVC] 闪灵/幻觉 The.Shining.1980.2160p.BluRay.REMUX.HEVC.DTS-HD.MA.5.1-FGT 81.90GB

[复制链接]
蓝光币
1840
发表于 2019-9-24 14:31:41 | 显示全部楼层 |阅读模式


◎译  名 闪灵 / 幻觉 / 幽光 / 鬼店(台)
◎片  名 The Shining
◎年  代 1980
◎产  地 英国 / 美国
◎类  别 剧情 / 悬疑 / 可骇
◎语  言 英语
◎上映日期 1980-05-23(美国)
◎IMDb评分  8.4/10 from 798884 users
◎IMDb链接  http://www.imdb.com/title/tt0081505
◎豆瓣评分 8.1/10 from 250508 users
◎豆瓣链接 https://movie.douban.com/subject/1292225/
◎片  长 119分钟(欧洲版)
◎导  演 斯坦利·库布里克 Stanley Kubrick
◎编  剧 斯坦利·库布里克 Stanley Kubrick / 黛安·约翰逊 Diane Johnson / 斯蒂芬·金 Stephen King
◎主  演 杰克·尼科尔森 Jack Nicholson
       谢莉·杜瓦尔 Shelley Duvall
       丹尼·劳埃德 Danny Lloyd
       斯加特克罗索斯 Scatman Crothers
       巴瑞·尼尔森 Barry Nelson
       菲利普·斯通 Philip Stone
       乔·托克尔 Joe Turkel
       安妮·杰克逊 Anne Jackson
       托尼·伯顿 Tony Burton

◎标  签 惊悚 | 可骇 | 美国 | 悬疑 | 库布里克 | 斯坦利·库布里克 | 可骇片 | 美国电影
◎简  介  
  杰克(杰克?尼科尔森 Jack Nicholson 饰)是一个作家。一个冬季,他获得了一个看管山顶酒店的差事。这正合杰克的意义,他恰好可以有一个清幽的地方写作。因而杰克带着妻儿搬进了酒店。
  冬季大雪封路,山顶酒店只要杰克一家三口。从他们一搬进来,杰克的妻子温蒂(谢莉·杜瓦尔 Shelley Duvall 饰)就发现这里氛围诡异,杰克的儿子丹尼(丹尼·劳埃德 Danny Lloyd 饰)经常看到一些他不熟悉的人,但这里除了他们一家别无他人。而杰克除了一成天闷头写作外,脾性亦变得越来越怪僻。
  直到有一天,温蒂发现丈夫这些天来一向写就只要一句话:杰克发狂了!
  1. Video #1
  2. ID                                       : 1
  3. Format                                   : HEVC
  4. Format/Info                              : High Efficiency Video Coding
  5. Format profile                           : Main [email protected]@High
  6. HDR format                               : SMPTE ST 2094 App 4, Version 1, HDR10+ Profile B compatible
  7. Codec ID                                 : V_MPEGH/ISO/HEVC
  8. Duration                                 : 2 h 23 min
  9. Bit rate                                 : 74.3 Mb/s
  10. Width                                    : 3 840 pixels
  11. Height                                   : 2 160 pixels
  12. Display aspect ratio                     : 16:9
  13. Frame rate mode                          : Constant
  14. Frame rate                               : 23.976 (24000/1001) FPS
  15. Color space                              : YUV
  16. Chroma subsampling                       : 4:2:0 (Type 2)
  17. Bit depth                                : 10 bits
  18. Bits/(Pixel*Frame)                       : 0.373
  19. Stream size                              : 74.6 GiB (91%)
  20. Title                                    : The.Shining.1980.2160p.BluRay.REMUX.HEVC.DTS-HD.MA.5.1-FGT
  21. Language                                 : English
  22. Default                                  : Yes
  23. Forced                                   : No
  24. Color range                              : Limited
  25. Color primaries                          : BT.2020
  26. Transfer characteristics                 : PQ
  27. Matrix coefficients                      : BT.2020 non-constant
  28. Mastering display color primaries        : Display P3
  29. Mastering display luminance              : min: 0.0050 cd/m2, max: 4000 cd/m2
  30. Maximum Content Light Level              : 1633 cd/m2
  31. Maximum Frame-Average Light Level        : 114 cd/m2
  32. Video #2
  33. ID                                       : 2
  34. Format                                   : HEVC
  35. Format/Info                              : High Efficiency Video Coding
  36. Format profile                           : Main [email protected]@High
  37. HDR format                               : SMPTE ST 2086, HDR10 compatible
  38. Codec ID                                 : V_MPEGH/ISO/HEVC
  39. Duration                                 : 2 h 23 min
  40. Bit rate                                 : 62.9 kb/s
  41. Width                                    : 1 920 pixels
  42. Height                                   : 1 080 pixels
  43. Display aspect ratio                     : 16:9
  44. Frame rate mode                          : Constant
  45. Frame rate                               : 23.976 (24000/1001) FPS
  46. Color space                              : YUV
  47. Chroma subsampling                       : 4:2:0 (Type 2)
  48. Bit depth                                : 10 bits
  49. Bits/(Pixel*Frame)                       : 0.001
  50. Stream size                              : 64.7 MiB (0%)
  51. Title                                    : The.Shining.1980.2160p.BluRay.REMUX.HEVC.DTS-HD.MA.5.1-FGT
  52. Default                                  : No
  53. Forced                                   : No
  54. Color range                              : Limited
  55. Color primaries                          : BT.2020
  56. Transfer characteristics                 : PQ
  57. Matrix coefficients                      : BT.2020 non-constant
  58. Mastering display color primaries        : Display P3
  59. Mastering display luminance              : min: 0.0050 cd/m2, max: 4000 cd/m2
  60. Audio #1
  61. ID                                       : 3
  62. Format                                   : DTS XLL
  63. Format/Info                              : Digital Theater Systems
  64. Commercial name                          : DTS-HD Master Audio
  65. Codec ID                                 : A_DTS
  66. Duration                                 : 2 h 23 min
  67. Bit rate mode                            : Variable
  68. Bit rate                                 : 4 098 kb/s
  69. Channel(s)                               : 6 channels
  70. Channel layout                           : C L R Ls Rs LFE
  71. Sampling rate                            : 48.0 kHz
  72. Frame rate                               : 93.750 FPS (512 SPF)
  73. Bit depth                                : 24 bits
  74. Compression mode                         : Lossless
  75. Stream size                              : 4.12 GiB (5%)
  76. Title                                    : The.Shining.1980.2160p.BluRay.REMUX.HEVC.DTS-HD.MA.5.1-FGT
  77. Language                                 : English
  78. Default                                  : Yes
  79. Forced                                   : No
  80. Audio #2
  81. ID                                       : 4
  82. Format                                   : AC-3
  83. Format/Info                              : Audio Coding 3
  84. Commercial name                          : Dolby Digital
  85. Codec ID                                 : A_AC3
  86. Duration                                 : 2 h 23 min
  87. Bit rate mode                            : Constant
  88. Bit rate                                 : 640 kb/s
  89. Channel(s)                               : 6 channels
  90. Channel layout                           : L R C LFE Ls Rs
  91. Sampling rate                            : 48.0 kHz
  92. Frame rate                               : 31.250 FPS (1536 SPF)
  93. Bit depth                                : 16 bits
  94. Compression mode                         : Lossy
  95. Stream size                              : 658 MiB (1%)
  96. Title                                    : The.Shining.1980.2160p.BluRay.REMUX.HEVC.DTS-HD.MA.5.1-FGT
  97. Language                                 : French
  98. Service kind                             : Complete Main
  99. Default                                  : No
  100. Forced                                   : No
  101. Audio #3
  102. ID                                       : 5
  103. Format                                   : AC-3
  104. Format/Info                              : Audio Coding 3
  105. Commercial name                          : Dolby Digital
  106. Codec ID                                 : A_AC3
  107. Duration                                 : 2 h 23 min
  108. Bit rate mode                            : Constant
  109. Bit rate                                 : 640 kb/s
  110. Channel(s)                               : 6 channels
  111. Channel layout                           : L R C LFE Ls Rs
  112. Sampling rate                            : 48.0 kHz
  113. Frame rate                               : 31.250 FPS (1536 SPF)
  114. Bit depth                                : 16 bits
  115. Compression mode                         : Lossy
  116. Stream size                              : 658 MiB (1%)
  117. Title                                    : The.Shining.1980.2160p.BluRay.REMUX.HEVC.DTS-HD.MA.5.1-FGT
  118. Language                                 : German
  119. Service kind                             : Complete Main
  120. Default                                  : No
  121. Forced                                   : No
  122. Audio #4
  123. ID                                       : 6
  124. Format                                   : AC-3
  125. Format/Info                              : Audio Coding 3
  126. Commercial name                          : Dolby Digital
  127. Codec ID                                 : A_AC3
  128. Duration                                 : 2 h 23 min
  129. Bit rate mode                            : Constant
  130. Bit rate                                 : 192 kb/s
  131. Channel(s)                               : 2 channels
  132. Channel layout                           : L R
  133. Sampling rate                            : 48.0 kHz
  134. Frame rate                               : 31.250 FPS (1536 SPF)
  135. Bit depth                                : 16 bits
  136. Compression mode                         : Lossy
  137. Stream size                              : 197 MiB (0%)
  138. Title                                    : The.Shining.1980.2160p.BluRay.REMUX.HEVC.DTS-HD.MA.5.1-FGT
  139. Language                                 : Italian
  140. Service kind                             : Complete Main
  141. Default                                  : No
  142. Forced                                   : No
  143. Audio #5
  144. ID                                       : 7
  145. Format                                   : AC-3
  146. Format/Info                              : Audio Coding 3
  147. Commercial name                          : Dolby Digital
  148. Codec ID                                 : A_AC3
  149. Duration                                 : 2 h 23 min
  150. Bit rate mode                            : Constant
  151. Bit rate                                 : 640 kb/s
  152. Channel(s)                               : 6 channels
  153. Channel layout                           : L R C LFE Ls Rs
  154. Sampling rate                            : 48.0 kHz
  155. Frame rate                               : 31.250 FPS (1536 SPF)
  156. Bit depth                                : 16 bits
  157. Compression mode                         : Lossy
  158. Stream size                              : 658 MiB (1%)
  159. Title                                    : The.Shining.1980.2160p.BluRay.REMUX.HEVC.DTS-HD.MA.5.1-FGT
  160. Language                                 : Spanish
  161. Service kind                             : Complete Main
  162. Default                                  : No
  163. Forced                                   : No
  164. Audio #6
  165. ID                                       : 8
  166. Format                                   : AC-3
  167. Format/Info                              : Audio Coding 3
  168. Commercial name                          : Dolby Digital
  169. Codec ID                                 : A_AC3
  170. Duration                                 : 2 h 23 min
  171. Bit rate mode                            : Constant
  172. Bit rate                                 : 640 kb/s
  173. Channel(s)                               : 6 channels
  174. Channel layout                           : L R C LFE Ls Rs
  175. Sampling rate                            : 48.0 kHz
  176. Frame rate                               : 31.250 FPS (1536 SPF)
  177. Bit depth                                : 16 bits
  178. Compression mode                         : Lossy
  179. Stream size                              : 658 MiB (1%)
  180. Title                                    : The.Shining.1980.2160p.BluRay.REMUX.HEVC.DTS-HD.MA.5.1-FGT
  181. Language                                 : Polish
  182. Service kind                             : Complete Main
  183. Default                                  : No
  184. Forced                                   : No
  185. Audio #7
  186. ID                                       : 9
  187. Format                                   : AC-3
  188. Format/Info                              : Audio Coding 3
  189. Commercial name                          : Dolby Digital
  190. Codec ID                                 : A_AC3
  191. Duration                                 : 2 h 23 min
  192. Bit rate mode                            : Constant
  193. Bit rate                                 : 192 kb/s
  194. Channel(s)                               : 2 channels
  195. Channel layout                           : L R
  196. Sampling rate                            : 48.0 kHz
  197. Frame rate                               : 31.250 FPS (1536 SPF)
  198. Bit depth                                : 16 bits
  199. Compression mode                         : Lossy
  200. Stream size                              : 197 MiB (0%)
  201. Title                                    : The.Shining.1980.2160p.BluRay.REMUX.HEVC.DTS-HD.MA.5.1-FGT
  202. Language                                 : English
  203. Service kind                             : Complete Main
  204. Default                                  : No
  205. Forced                                   : No
  206. Text #1
  207. ID                                       : 10
  208. Format                                   : UTF-8
  209. Codec ID                                 : S_TEXT/UTF8
  210. Codec ID/Info                            : UTF-8 Plain Text
  211. Duration                                 : 2 h 14 min
  212. Bit rate                                 : 41 b/s
  213. Count of elements                        : 1453
  214. Stream size                              : 40.4 KiB (0%)
  215. Title                                    : English-SRT
  216. Language                                 : English
  217. Default                                  : Yes
  218. Forced                                   : No
  219. Text #2
  220. ID                                       : 11
  221. Format                                   : PGS
  222. Muxing mode                              : zlib
  223. Codec ID                                 : S_HDMV/PGS
  224. Codec ID/Info                            : Picture based subtitle format used on BDs/HD-DVDs
  225. Duration                                 : 2 h 16 min
  226. Bit rate                                 : 23.4 kb/s
  227. Count of elements                        : 3042
  228. Stream size                              : 22.8 MiB (0%)
  229. Title                                    : English-PGS
  230. Language                                 : English
  231. Default                                  : No
  232. Forced                                   : No
  233. Text #3
  234. ID                                       : 12
  235. Format                                   : PGS
  236. Muxing mode                              : zlib
  237. Codec ID                                 : S_HDMV/PGS
  238. Codec ID/Info                            : Picture based subtitle format used on BDs/HD-DVDs
  239. Duration                                 : 2 h 20 min
  240. Bit rate                                 : 18.4 kb/s
  241. Count of elements                        : 2378
  242. Stream size                              : 18.5 MiB (0%)
  243. Title                                    : French-PGS
  244. Language                                 : French
  245. Default                                  : No
  246. Forced                                   : No
  247. Text #4
  248. ID                                       : 13
  249. Format                                   : PGS
  250. Muxing mode                              : zlib
  251. Codec ID                                 : S_HDMV/PGS
  252. Codec ID/Info                            : Picture based subtitle format used on BDs/HD-DVDs
  253. Duration                                 : 2 h 18 min
  254. Bit rate                                 : 24.5 kb/s
  255. Count of elements                        : 3062
  256. Stream size                              : 24.2 MiB (0%)
  257. Title                                    : German-PGS
  258. Language                                 : German
  259. Default                                  : No
  260. Forced                                   : No
  261. Text #5
  262. ID                                       : 14
  263. Format                                   : PGS
  264. Muxing mode                              : zlib
  265. Codec ID                                 : S_HDMV/PGS
  266. Codec ID/Info                            : Picture based subtitle format used on BDs/HD-DVDs
  267. Duration                                 : 2 h 18 min
  268. Bit rate                                 : 24.0 kb/s
  269. Count of elements                        : 3050
  270. Stream size                              : 23.7 MiB (0%)
  271. Title                                    : Italian-PGS
  272. Language                                 : Italian
  273. Default                                  : No
  274. Forced                                   : No
  275. Text #6
  276. ID                                       : 15
  277. Format                                   : PGS
  278. Muxing mode                              : zlib
  279. Codec ID                                 : S_HDMV/PGS
  280. Codec ID/Info                            : Picture based subtitle format used on BDs/HD-DVDs
  281. Duration                                 : 2 h 18 min
  282. Bit rate                                 : 18.0 kb/s
  283. Count of elements                        : 2420
  284. Stream size                              : 17.8 MiB (0%)
  285. Title                                    : Dutch-PGS
  286. Language                                 : Dutch
  287. Default                                  : No
  288. Forced                                   : No
  289. Text #7
  290. ID                                       : 16
  291. Format                                   : PGS
  292. Muxing mode                              : zlib
  293. Codec ID                                 : S_HDMV/PGS
  294. Codec ID/Info                            : Picture based subtitle format used on BDs/HD-DVDs
  295. Duration                                 : 2 h 19 min
  296. Bit rate                                 : 19.4 kb/s
  297. Count of elements                        : 2698
  298. Stream size                              : 19.4 MiB (0%)
  299. Title                                    : Chinese-PGS
  300. Language                                 : Chinese
  301. Default                                  : No
  302. Forced                                   : No
  303. Text #8
  304. ID                                       : 17
  305. Format                                   : PGS
  306. Muxing mode                              : zlib
  307. Codec ID                                 : S_HDMV/PGS
  308. Codec ID/Info                            : Picture based subtitle format used on BDs/HD-DVDs
  309. Duration                                 : 2 h 19 min
  310. Bit rate                                 : 15.0 kb/s
  311. Count of elements                        : 2638
  312. Stream size                              : 15.0 MiB (0%)
  313. Title                                    : Korean-PGS
  314. Language                                 : Korean
  315. Default                                  : No
  316. Forced                                   : No
  317. Text #9
  318. ID                                       : 18
  319. Format                                   : PGS
  320. Muxing mode                              : zlib
  321. Codec ID                                 : S_HDMV/PGS
  322. Codec ID/Info                            : Picture based subtitle format used on BDs/HD-DVDs
  323. Duration                                 : 2 h 18 min
  324. Bit rate                                 : 18.3 kb/s
  325. Count of elements                        : 2628
  326. Stream size                              : 18.1 MiB (0%)
  327. Title                                    : Spanish-PGS
  328. Language                                 : Spanish
  329. Default                                  : No
  330. Forced                                   : No
  331. Text #10
  332. ID                                       : 19
  333. Format                                   : PGS
  334. Muxing mode                              : zlib
  335. Codec ID                                 : S_HDMV/PGS
  336. Codec ID/Info                            : Picture based subtitle format used on BDs/HD-DVDs
  337. Duration                                 : 2 h 19 min
  338. Bit rate                                 : 10.7 kb/s
  339. Count of elements                        : 2624
  340. Stream size                              : 10.7 MiB (0%)
  341. Title                                    : Arabic-PGS
  342. Language                                 : Arabic
  343. Default                                  : No
  344. Forced                                   : No
  345. Text #11
  346. ID                                       : 20
  347. Format                                   : PGS
  348. Muxing mode                              : zlib
  349. Codec ID                                 : S_HDMV/PGS
  350. Codec ID/Info                            : Picture based subtitle format used on BDs/HD-DVDs
  351. Duration                                 : 2 h 19 min
  352. Bit rate                                 : 18.0 kb/s
  353. Count of elements                        : 2708
  354. Stream size                              : 18.0 MiB (0%)
  355. Title                                    : Czech-PGS
  356. Language                                 : Czech
  357. Default                                  : No
  358. Forced                                   : No
  359. Text #12
  360. ID                                       : 21
  361. Format                                   : PGS
  362. Muxing mode                              : zlib
  363. Codec ID                                 : S_HDMV/PGS
  364. Codec ID/Info                            : Picture based subtitle format used on BDs/HD-DVDs
  365. Duration                                 : 2 h 20 min
  366. Bit rate                                 : 19.6 kb/s
  367. Count of elements                        : 2494
  368. Stream size                              : 19.7 MiB (0%)
  369. Title                                    : Danish-PGS
  370. Language                                 : Danish
  371. Default                                  : No
  372. Forced                                   : No
  373. Text #13
  374. ID                                       : 22
  375. Format                                   : PGS
  376. Muxing mode                              : zlib
  377. Codec ID                                 : S_HDMV/PGS
  378. Codec ID/Info                            : Picture based subtitle format used on BDs/HD-DVDs
  379. Duration                                 : 2 h 19 min
  380. Bit rate                                 : 15.6 kb/s
  381. Count of elements                        : 1978
  382. Stream size                              : 15.6 MiB (0%)
  383. Title                                    : Finnish-PGS
  384. Language                                 : Finnish
  385. Default                                  : No
  386. Forced                                   : No
  387. Text #14
  388. ID                                       : 23
  389. Format                                   : PGS
  390. Muxing mode                              : zlib
  391. Codec ID                                 : S_HDMV/PGS
  392. Codec ID/Info                            : Picture based subtitle format used on BDs/HD-DVDs
  393. Duration                                 : 2 h 19 min
  394. Bit rate                                 : 19.8 kb/s
  395. Count of elements                        : 2702
  396. Stream size                              : 19.8 MiB (0%)
  397. Title                                    : Hungarian-PGS
  398. Language                                 : Hungarian
  399. Default                                  : No
  400. Forced                                   : No
  401. Text #15
  402. ID                                       : 24
  403. Format                                   : PGS
  404. Muxing mode                              : zlib
  405. Codec ID                                 : S_HDMV/PGS
  406. Codec ID/Info                            : Picture based subtitle format used on BDs/HD-DVDs
  407. Duration                                 : 2 h 19 min
  408. Bit rate                                 : 17.5 kb/s
  409. Count of elements                        : 2252
  410. Stream size                              : 17.5 MiB (0%)
  411. Title                                    : Norwegian-PGS
  412. Language                                 : Norwegian
  413. Default                                  : No
  414. Forced                                   : No
  415. Text #16
  416. ID                                       : 25
  417. Format                                   : PGS
  418. Muxing mode                              : zlib
  419. Codec ID                                 : S_HDMV/PGS
  420. Codec ID/Info                            : Picture based subtitle format used on BDs/HD-DVDs
  421. Duration                                 : 2 h 19 min
  422. Bit rate                                 : 17.3 kb/s
  423. Count of elements                        : 2562
  424. Stream size                              : 17.2 MiB (0%)
  425. Title                                    : Polish-PGS
  426. Language                                 : Polish
  427. Default                                  : No
  428. Forced                                   : No
  429. Text #17
  430. ID                                       : 26
  431. Format                                   : PGS
  432. Muxing mode                              : zlib
  433. Codec ID                                 : S_HDMV/PGS
  434. Codec ID/Info                            : Picture based subtitle format used on BDs/HD-DVDs
  435. Duration                                 : 2 h 18 min
  436. Bit rate                                 : 19.9 kb/s
  437. Count of elements                        : 2710
  438. Stream size                              : 19.6 MiB (0%)
  439. Title                                    : Romanian-PGS
  440. Language                                 : Romanian
  441. Default                                  : No
  442. Forced                                   : No
  443. Text #18
  444. ID                                       : 27
  445. Format                                   : PGS
  446. Muxing mode                              : zlib
  447. Codec ID                                 : S_HDMV/PGS
  448. Codec ID/Info                            : Picture based subtitle format used on BDs/HD-DVDs
  449. Duration                                 : 2 h 19 min
  450. Bit rate                                 : 20.6 kb/s
  451. Count of elements                        : 2634
  452. Stream size                              : 20.5 MiB (0%)
  453. Title                                    : Russian-PGS
  454. Language                                 : Russian
  455. Default                                  : No
  456. Forced                                   : No
  457. Text #19
  458. ID                                       : 28
  459. Format                                   : PGS
  460. Muxing mode                              : zlib
  461. Codec ID                                 : S_HDMV/PGS
  462. Codec ID/Info                            : Picture based subtitle format used on BDs/HD-DVDs
  463. Duration                                 : 2 h 18 min
  464. Bit rate                                 : 17.0 kb/s
  465. Count of elements                        : 2338
  466. Stream size                              : 16.8 MiB (0%)
  467. Title                                    : Swedish-PGS
  468. Language                                 : Swedish
  469. Default                                  : No
  470. Forced                                   : No
  471. Text #20
  472. ID                                       : 29
  473. Format                                   : PGS
  474. Muxing mode                              : zlib
  475. Codec ID                                 : S_HDMV/PGS
  476. Codec ID/Info                            : Picture based subtitle format used on BDs/HD-DVDs
  477. Duration                                 : 2 h 18 min
  478. Bit rate                                 : 19.3 kb/s
  479. Count of elements                        : 2716
  480. Stream size                              : 19.1 MiB (0%)
  481. Title                                    : Thai-PGS
  482. Language                                 : Thai
  483. Default                                  : No
  484. Forced                                   : No
  485. Text #21
  486. ID                                       : 30
  487. Format                                   : PGS
  488. Muxing mode                              : zlib
  489. Codec ID                                 : S_HDMV/PGS
  490. Codec ID/Info                            : Picture based subtitle format used on BDs/HD-DVDs
  491. Duration                                 : 2 h 21 min
  492. Bit rate                                 : 40.2 kb/s
  493. Count of elements                        : 3936
  494. Stream size                              : 40.5 MiB (0%)
  495. Title                                    : Chinese-PGS
  496. Language                                 : Chinese
  497. Default                                  : No
  498. Forced                                   : No
  499. Menu
  500. 00:00:00.000                             : en:Chapter 01
  501. 00:03:00.388                             : en:Chapter 02
  502. 00:05:04.846                             : en:Chapter 03
  503. 00:10:33.799                             : en:Chapter 04
  504. 00:12:08.394                             : en:Chapter 05
  505. 00:14:24.280                             : en:Chapter 06
  506. 00:17:37.556                             : en:Chapter 07
  507. 00:20:30.896                             : en:Chapter 08
  508. 00:24:58.622                             : en:Chapter 09
  509. 00:28:51.563                             : en:Chapter 10
  510. 00:34:10.089                             : en:Chapter 11
  511. 00:40:28.801                             : en:Chapter 12
  512. 00:46:00.924                             : en:Chapter 13
  513. 00:46:52.226                             : en:Chapter 14
  514. 00:49:17.079                             : en:Chapter 15
  515. 00:51:16.198                             : en:Chapter 16
  516. 00:57:01.876                             : en:Chapter 17
  517. 00:58:36.846                             : en:Chapter 18
  518. 01:02:37.086                             : en:Chapter 19
  519. 01:06:05.753                             : en:Chapter 20
  520. 01:09:00.469                             : en:Chapter 21
  521. 01:16:52.107                             : en:Chapter 22
  522. 01:22:18.558                             : en:Chapter 23
  523. 01:25:29.582                             : en:Chapter 24
  524. 01:31:41.120                             : en:Chapter 25
  525. 01:34:03.804                             : en:Chapter 26
  526. 01:35:48.576                             : en:Chapter 27
  527. 01:39:30.547                             : en:Chapter 28
  528. 01:43:49.806                             : en:Chapter 29
  529. 01:49:26.059                             : en:Chapter 30
  530. 01:54:24.440                             : en:Chapter 31
  531. 01:58:44.617                             : en:Chapter 32
  532. 02:01:09.553                             : en:Chapter 33
  533. 02:05:29.980                             : en:Chapter 34
  534. 02:07:32.561                             : en:Chapter 35
  535. 02:10:23.482                             : en:Chapter 36
  536. 02:12:10.047                             : en:Chapter 37
  537. 02:15:03.345                             : en:Chapter 38
  538. 02:18:56.745                             : en:Chapter 39
  539. 02:21:16.301                             : en:Chapter 40
复制代码






                                       
                                       

                                       
                                       
                                       




回复

使用道具 举报

蓝光币
32
发表于 2021-11-7 00:09:16 | 显示全部楼层

楼主太厉害了!楼主,电影应该很好看我觉得蓝光电影网真是个好地方!
回复

使用道具 举报

懒得打字嘛,点击右侧快捷回复 【右侧内容,后台自定义】
您需要登录后才可以回帖 登录 | 立即加入

本版积分规则

Copyright © 2024 Comsenz Inc. Powered by 蓝光电影网

本站内容由用户自主分享和转载自互联网,转载目的在于传递更多信息,并不代表本网赞同其观点和对其真实性负责。

如有侵权、违反国家法律政策行为,请联系我们,我们会第一时间及时清除和处理!

举报反馈邮箱:4k1080.com@gmail.com

快速回复 返回顶部 返回列表