找回密码

查看: 1512|回复: 1

[UHD.HEVC] 勇敢传说 Brave.2012.2160p.BluRay.REMUX.HEVC.DTS-HD.MA.TrueHD.7.1.Atmos-FGT 45.54GB

[复制链接]
蓝光币
2027
发表于 2019-9-9 20:47:29 | 显示全部楼层 |阅读模式


◎译  名 勇敢传闻 / Bear and the Bow / 勇敢 / 勇敢传闻之幻险森林(港) / 勇敢的公主 / 熊与弓
◎片  名 Brave
◎年  代 2012
◎产  地 美国
◎类  别 笑剧 / 动画 / 奇异 / 冒险
◎语  言 英语
◎上映日期 2012-06-10(西雅图电影节) / 2012-06-19(中国大陆) / 2012-06-22(美国)
◎IMDb评分  7.1/10 from 343939 users
◎IMDb链接  http://www.imdb.com/title/tt1217209
◎豆瓣评分 7.5/10 from 114455 users
◎豆瓣链接 https://movie.douban.com/subject/3036473/
◎片  长 93分钟
◎导  演 马克?安德鲁斯 Mark Andrews / 布兰达?查普 Brenda Chapman / 史蒂夫·普切尔 Steve Purcell
◎编  剧 布兰达?查普 Brenda Chapman / 艾琳·梅琪 Irene Mecchi / 马克?安德鲁斯 Mark Andrews / 史蒂夫·普切尔 Steve Purcell
◎主  演 凯莉·麦克唐纳 Kelly Macdonald
       艾玛·汤普森 Emma Thompson
       比利·康诺利 Billy Connolly
       朱丽·沃特斯 Julie Walters
       罗彼·考特拉尼 Robbie Coltrane
       凯文·麦克基德 Kevin McKidd
       克雷格·费格森 Craig Ferguson
       莎莉·金霍恩 Sally Kinghorn
       伊丽·弗雷泽 Eilidh Fraser
       佩吉·巴克 Peigi Barker
       史蒂芬·克里 Steven Cree
       卡勒姆·奥尼尔 Callum O'Neill
       帕特里克·杜尔 Patrick Doyle
       约翰·拉岑贝格 John Ratzenberger
       史蒂夫·波赛尔 Steve Purcell

◎标  签 动画 | 美国 | 皮克斯 | 亲情 | Disney | 2012 | 笑剧 | 长大
◎简  介  
  久长以来,那些巨大的战争故事和魔幻的传闻一向被人们口口相传,一代又一代,生生不息在这片延绵又奥秘的苏格兰高地上。迪士尼?皮克斯的又一诚意之作,勇敢的梅莉达抗争传统约束,追求自在从而改变自己命运的绮丽故事横空出世。梅莉达是佛格国王与艾莉诺皇后的长女,她是一位出色的弓箭手, 也有任性不羁,《勇敢传闻》报告的就是她的冒险故事。
  为了走出自己的生活之路,梅莉达拒绝承袭对于3个部落首领(丁瓦、麦金、麦葛)来说崇高不成加害的陈腐传统。梅莉达的冒失给她的王国带去了紊乱和灾难,当她向森林中的女巫追求帮助的时辰,女巫却实施了灾难性的魔咒。
  相继而来的灾难强逼梅莉达使出满身解术——包括自己的三胞胎弟弟们——来帮助她消除咒语,寻获勇气的真理。
  由马克?安德鲁斯与布兰达?查普结合执导,凯瑟琳?萨拉斐安监制的这部《勇敢传闻》,布满了巨大冒险传奇,打造出典范的人物脚色,固然还有备受全球影迷期待的皮克斯式诙谐。
◎获奖情况  
  第85届奥斯卡金像奖(2013)
  最好动画长片 布兰达?查普曼 / 马克?安德鲁斯
  第70届金球奖(2013)
  电影类 最好动画长片
  第40届动画安妮奖(2013)
  最好动画长片(提名)
  最好编剧(提名) 布兰达?查普曼 / 马克?安德鲁斯 / 艾琳·梅琪
  最好配音(提名) 凯莉·麦克唐纳
  最好配乐(提名) 帕特里克·道尔 / 马克?安德鲁斯
  最好剪辑 David Suther
  最好艺术指导 Steve Pilcher
  最好动画脚色(提名) Jaime Landes
  最好动画结果(提名) Keith Daniel Klohn / Bill Watral
  第78届纽约影评人协会奖(2012)
  最好动画片(提名)
  第18届美国批评家挑选电影奖(2013)
  最好动画片(提名)
  最好歌曲(提名)
  第17届金卫星奖(2012)
  电影部分 最好动画片(提名)
  电影部分 最好原创歌曲(提名)
  第11届华盛顿影评人协会奖(2012)
  最好动画片(提名)
  第17届圣地亚哥影评人协会奖(2012)
  最好动画片(提名)
  第25届芝加哥影评人协会奖(2012)
  最好动画片(提名)
  第12届凤凰城影评人协会奖(2012)
  最好动画片(提名)
  第3届豆瓣电影鑫像奖(2013)
  鑫豆单元 最好动画长片(提名)
  鑫豆单元 最好歌曲(提名)
  1. Video
  2. ID                                       : 1
  3. Format                                   : HEVC
  4. Format/Info                              : High Efficiency Video Coding
  5. Format profile                           : Main [email protected]@High
  6. HDR format                               : SMPTE ST 2086, HDR10 compatible
  7. Codec ID                                 : V_MPEGH/ISO/HEVC
  8. Duration                                 : 1 h 33 min
  9. Bit rate                                 : 52.3 Mb/s
  10. Width                                    : 3 840 pixels
  11. Height                                   : 2 160 pixels
  12. Display aspect ratio                     : 16:9
  13. Frame rate mode                          : Constant
  14. Frame rate                               : 23.976 (24000/1001) FPS
  15. Color space                              : YUV
  16. Chroma subsampling                       : 4:2:0 (Type 2)
  17. Bit depth                                : 10 bits
  18. Bits/(Pixel*Frame)                       : 0.263
  19. Stream size                              : 34.2 GiB (75%)
  20. Title                                    : Brave.2012.2160p.BluRay.REMUX.HEVC.DTS-HD.MA.TrueHD.7.1.Atmos-FGT
  21. Writing library                          : ATEME Titan File 3.9.0 (4.9.0.0)        
  22. Language                                 : English
  23. Default                                  : No
  24. Forced                                   : No
  25. Color range                              : Limited
  26. Color primaries                          : BT.2020
  27. Transfer characteristics                 : PQ
  28. Matrix coefficients                      : BT.2020 non-constant
  29. Mastering display color primaries        : Display P3
  30. Mastering display luminance              : min: 0.0000 cd/m2, max: 1000 cd/m2
  31. Audio #1
  32. ID                                       : 2
  33. Format                                   : MLP FBA 16-ch
  34. Format/Info                              : Meridian Lossless Packing FBA with 16-channel presentation
  35. Commercial name                          : Dolby TrueHD with Dolby Atmos
  36. Codec ID                                 : A_TRUEHD
  37. Duration                                 : 1 h 33 min
  38. Bit rate mode                            : Variable
  39. Bit rate                                 : 7 827 kb/s
  40. Maximum bit rate                         : 10.9 Mb/s
  41. Channel(s)                               : 8 channels
  42. Channel layout                           : L R C LFE Ls Rs Lb Rb
  43. Sampling rate                            : 48.0 kHz
  44. Frame rate                               : 1 200.000 FPS (40 SPF)
  45. Compression mode                         : Lossless
  46. Stream size                              : 5.12 GiB (11%)
  47. Title                                    : Brave.2012.2160p.BluRay.REMUX.HEVC.DTS-HD.MA.TrueHD.7.1.Atmos-FGT
  48. Language                                 : English
  49. Default                                  : Yes
  50. Forced                                   : No
  51. Number of dynamic objects                : 13
  52. Bed channel count                        : 1 channel
  53. Bed channel configuration                : LFE
  54. Audio #2
  55. ID                                       : 3
  56. Format                                   : DTS XLL
  57. Format/Info                              : Digital Theater Systems
  58. Commercial name                          : DTS-HD Master Audio
  59. Codec ID                                 : A_DTS
  60. Duration                                 : 1 h 33 min
  61. Bit rate mode                            : Variable
  62. Bit rate                                 : 4 050 kb/s
  63. Channel(s)                               : 8 channels
  64. Channel layout                           : C L R LFE Lb Rb Lss Rss
  65. Sampling rate                            : 48.0 kHz
  66. Frame rate                               : 93.750 FPS (512 SPF)
  67. Bit depth                                : 24 bits
  68. Compression mode                         : Lossless
  69. Stream size                              : 2.65 GiB (6%)
  70. Title                                    : Brave.2012.2160p.BluRay.REMUX.HEVC.DTS-HD.MA.TrueHD.7.1.Atmos-FGT
  71. Language                                 : English
  72. Default                                  : No
  73. Forced                                   : No
  74. Audio #3
  75. ID                                       : 4
  76. Format                                   : AC-3
  77. Format/Info                              : Audio Coding 3
  78. Commercial name                          : Dolby Digital
  79. Codec ID                                 : A_AC3
  80. Duration                                 : 1 h 33 min
  81. Bit rate mode                            : Constant
  82. Bit rate                                 : 640 kb/s
  83. Channel(s)                               : 6 channels
  84. Channel layout                           : L R C LFE Ls Rs
  85. Sampling rate                            : 48.0 kHz
  86. Frame rate                               : 31.250 FPS (1536 SPF)
  87. Bit depth                                : 16 bits
  88. Compression mode                         : Lossy
  89. Stream size                              : 428 MiB (1%)
  90. Title                                    : Brave.2012.2160p.BluRay.REMUX.HEVC.DTS-HD.MA.TrueHD.7.1.Atmos-FGT
  91. Language                                 : English
  92. Service kind                             : Complete Main
  93. Default                                  : No
  94. Forced                                   : No
  95. Audio #4
  96. ID                                       : 5
  97. Format                                   : E-AC-3
  98. Format/Info                              : Enhanced AC-3
  99. Commercial name                          : Dolby Digital Plus
  100. Format profile                           : Blu-ray Disc
  101. Codec ID                                 : A_EAC3
  102. Duration                                 : 1 h 33 min
  103. Bit rate mode                            : Constant
  104. Bit rate                                 : 896 kb/s
  105. Channel(s)                               : 8 channels
  106. Channel layout                           : L R C LFE Ls Rs Lb Rb
  107. Sampling rate                            : 48.0 kHz
  108. Frame rate                               : 31.250 FPS (1536 SPF)
  109. Compression mode                         : Lossy
  110. Stream size                              : 600 MiB (1%)
  111. Title                                    : Brave.2012.2160p.BluRay.REMUX.HEVC.DTS-HD.MA.TrueHD.7.1.Atmos-FGT
  112. Language                                 : English
  113. Service kind                             : Complete Main
  114. Default                                  : No
  115. Forced                                   : No
  116. Audio #5
  117. ID                                       : 6
  118. Format                                   : AC-3
  119. Format/Info                              : Audio Coding 3
  120. Commercial name                          : Dolby Digital
  121. Codec ID                                 : A_AC3
  122. Duration                                 : 1 h 33 min
  123. Bit rate mode                            : Constant
  124. Bit rate                                 : 512 kb/s
  125. Channel(s)                               : 6 channels
  126. Channel layout                           : L R C LFE Ls Rs
  127. Sampling rate                            : 48.0 kHz
  128. Frame rate                               : 31.250 FPS (1536 SPF)
  129. Bit depth                                : 16 bits
  130. Compression mode                         : Lossy
  131. Stream size                              : 343 MiB (1%)
  132. Title                                    : Brave.2012.2160p.BluRay.REMUX.HEVC.DTS-HD.MA.TrueHD.7.1.Atmos-FGT
  133. Language                                 : English
  134. Service kind                             : Complete Main
  135. Default                                  : No
  136. Forced                                   : No
  137. Audio #6
  138. ID                                       : 7
  139. Format                                   : AC-3
  140. Format/Info                              : Audio Coding 3
  141. Commercial name                          : Dolby Digital
  142. Codec ID                                 : A_AC3
  143. Duration                                 : 1 h 33 min
  144. Bit rate mode                            : Constant
  145. Bit rate                                 : 640 kb/s
  146. Channel(s)                               : 6 channels
  147. Channel layout                           : L R C LFE Ls Rs
  148. Sampling rate                            : 48.0 kHz
  149. Frame rate                               : 31.250 FPS (1536 SPF)
  150. Bit depth                                : 16 bits
  151. Compression mode                         : Lossy
  152. Stream size                              : 428 MiB (1%)
  153. Title                                    : Brave.2012.2160p.BluRay.REMUX.HEVC.DTS-HD.MA.TrueHD.7.1.Atmos-FGT
  154. Language                                 : English
  155. Service kind                             : Complete Main
  156. Default                                  : No
  157. Forced                                   : No
  158. Audio #7
  159. ID                                       : 8
  160. Format                                   : AC-3
  161. Format/Info                              : Audio Coding 3
  162. Commercial name                          : Dolby Digital
  163. Codec ID                                 : A_AC3
  164. Duration                                 : 1 h 33 min
  165. Bit rate mode                            : Constant
  166. Bit rate                                 : 320 kb/s
  167. Channel(s)                               : 2 channels
  168. Channel layout                           : L R
  169. Sampling rate                            : 48.0 kHz
  170. Frame rate                               : 31.250 FPS (1536 SPF)
  171. Bit depth                                : 16 bits
  172. Compression mode                         : Lossy
  173. Stream size                              : 214 MiB (0%)
  174. Title                                    : Brave.2012.2160p.BluRay.REMUX.HEVC.DTS-HD.MA.TrueHD.7.1.Atmos-FGT
  175. Language                                 : English
  176. Service kind                             : Complete Main
  177. Default                                  : No
  178. Forced                                   : No
  179. Audio #8
  180. ID                                       : 9
  181. Format                                   : AC-3
  182. Format/Info                              : Audio Coding 3
  183. Commercial name                          : Dolby Digital
  184. Codec ID                                 : A_AC3
  185. Duration                                 : 1 h 33 min
  186. Bit rate mode                            : Constant
  187. Bit rate                                 : 320 kb/s
  188. Channel(s)                               : 2 channels
  189. Channel layout                           : L R
  190. Sampling rate                            : 48.0 kHz
  191. Frame rate                               : 31.250 FPS (1536 SPF)
  192. Bit depth                                : 16 bits
  193. Compression mode                         : Lossy
  194. Stream size                              : 214 MiB (0%)
  195. Title                                    : Brave.2012.2160p.BluRay.REMUX.HEVC.DTS-HD.MA.TrueHD.7.1.Atmos-FGT
  196. Language                                 : English
  197. Service kind                             : Complete Main
  198. Default                                  : No
  199. Forced                                   : No
  200. Audio #9
  201. ID                                       : 10
  202. Format                                   : E-AC-3
  203. Format/Info                              : Enhanced AC-3
  204. Commercial name                          : Dolby Digital Plus
  205. Format profile                           : Blu-ray Disc
  206. Codec ID                                 : A_EAC3
  207. Duration                                 : 1 h 33 min
  208. Bit rate mode                            : Constant
  209. Bit rate                                 : 896 kb/s
  210. Channel(s)                               : 8 channels
  211. Channel layout                           : L R C LFE Ls Rs Lb Rb
  212. Sampling rate                            : 48.0 kHz
  213. Frame rate                               : 31.250 FPS (1536 SPF)
  214. Compression mode                         : Lossy
  215. Stream size                              : 600 MiB (1%)
  216. Title                                    : Brave.2012.2160p.BluRay.REMUX.HEVC.DTS-HD.MA.TrueHD.7.1.Atmos-FGT
  217. Language                                 : French
  218. Service kind                             : Complete Main
  219. Default                                  : No
  220. Forced                                   : No
  221. Audio #10
  222. ID                                       : 11
  223. Format                                   : AC-3
  224. Format/Info                              : Audio Coding 3
  225. Commercial name                          : Dolby Digital
  226. Codec ID                                 : A_AC3
  227. Duration                                 : 1 h 33 min
  228. Bit rate mode                            : Constant
  229. Bit rate                                 : 512 kb/s
  230. Channel(s)                               : 6 channels
  231. Channel layout                           : L R C LFE Ls Rs
  232. Sampling rate                            : 48.0 kHz
  233. Frame rate                               : 31.250 FPS (1536 SPF)
  234. Bit depth                                : 16 bits
  235. Compression mode                         : Lossy
  236. Stream size                              : 343 MiB (1%)
  237. Title                                    : Brave.2012.2160p.BluRay.REMUX.HEVC.DTS-HD.MA.TrueHD.7.1.Atmos-FGT
  238. Language                                 : French
  239. Service kind                             : Complete Main
  240. Default                                  : No
  241. Forced                                   : No
  242. Audio #11
  243. ID                                       : 12
  244. Format                                   : AC-3
  245. Format/Info                              : Audio Coding 3
  246. Commercial name                          : Dolby Digital
  247. Codec ID                                 : A_AC3
  248. Duration                                 : 1 h 33 min
  249. Bit rate mode                            : Constant
  250. Bit rate                                 : 640 kb/s
  251. Channel(s)                               : 6 channels
  252. Channel layout                           : L R C LFE Ls Rs
  253. Sampling rate                            : 48.0 kHz
  254. Frame rate                               : 31.250 FPS (1536 SPF)
  255. Bit depth                                : 16 bits
  256. Compression mode                         : Lossy
  257. Stream size                              : 428 MiB (1%)
  258. Title                                    : Brave.2012.2160p.BluRay.REMUX.HEVC.DTS-HD.MA.TrueHD.7.1.Atmos-FGT
  259. Language                                 : Spanish
  260. Service kind                             : Complete Main
  261. Default                                  : No
  262. Forced                                   : No
  263. Text #1
  264. ID                                       : 13
  265. Format                                   : UTF-8
  266. Codec ID                                 : S_TEXT/UTF8
  267. Codec ID/Info                            : UTF-8 Plain Text
  268. Duration                                 : 1 h 31 min
  269. Bit rate                                 : 42 b/s
  270. Count of elements                        : 1015
  271. Stream size                              : 28.3 KiB (0%)
  272. Title                                    : English-SRT
  273. Language                                 : English
  274. Default                                  : Yes
  275. Forced                                   : No
  276. Text #2
  277. ID                                       : 14
  278. Format                                   : PGS
  279. Muxing mode                              : zlib
  280. Codec ID                                 : S_HDMV/PGS
  281. Codec ID/Info                            : Picture based subtitle format used on BDs/HD-DVDs
  282. Duration                                 : 1 h 32 min
  283. Bit rate                                 : 36.3 kb/s
  284. Count of elements                        : 2802
  285. Stream size                              : 24.0 MiB (0%)
  286. Title                                    : English-PGS
  287. Language                                 : English
  288. Default                                  : No
  289. Forced                                   : No
  290. Text #3
  291. ID                                       : 15
  292. Format                                   : PGS
  293. Muxing mode                              : zlib
  294. Codec ID                                 : S_HDMV/PGS
  295. Codec ID/Info                            : Picture based subtitle format used on BDs/HD-DVDs
  296. Duration                                 : 1 h 32 min
  297. Bit rate                                 : 24.8 kb/s
  298. Count of elements                        : 1772
  299. Stream size                              : 16.4 MiB (0%)
  300. Title                                    : French-PGS
  301. Language                                 : French
  302. Default                                  : No
  303. Forced                                   : No
  304. Text #4
  305. ID                                       : 16
  306. Format                                   : PGS
  307. Muxing mode                              : zlib
  308. Codec ID                                 : S_HDMV/PGS
  309. Codec ID/Info                            : Picture based subtitle format used on BDs/HD-DVDs
  310. Duration                                 : 1 h 32 min
  311. Bit rate                                 : 22.5 kb/s
  312. Count of elements                        : 1472
  313. Stream size                              : 14.8 MiB (0%)
  314. Title                                    : Spanish-PGS
  315. Language                                 : Spanish
  316. Default                                  : No
  317. Forced                                   : No
  318. Menu
  319. 00:00:00.000                             : en:Chapter 01
  320. 00:04:23.346                             : en:Chapter 02
  321. 00:09:18.266                             : en:Chapter 03
  322. 00:12:54.190                             : en:Chapter 04
  323. 00:14:01.090                             : en:Chapter 05
  324. 00:16:10.970                             : en:Chapter 06
  325. 00:17:37.514                             : en:Chapter 07
  326. 00:22:56.625                             : en:Chapter 08
  327. 00:27:23.725                             : en:Chapter 09
  328. 00:28:52.063                             : en:Chapter 10
  329. 00:30:55.687                             : en:Chapter 11
  330. 00:34:00.955                             : en:Chapter 12
  331. 00:36:04.328                             : en:Chapter 13
  332. 00:39:07.762                             : en:Chapter 14
  333. 00:41:55.930                             : en:Chapter 15
  334. 00:43:28.564                             : en:Chapter 16
  335. 00:47:06.573                             : en:Chapter 17
  336. 00:48:23.150                             : en:Chapter 18
  337. 00:51:04.895                             : en:Chapter 19
  338. 00:52:34.693                             : en:Chapter 20
  339. 00:54:01.863                             : en:Chapter 21
  340. 00:54:46.491                             : en:Chapter 22
  341. 00:57:31.698                             : en:Chapter 23
  342. 00:59:00.995                             : en:Chapter 24
  343. 01:02:49.015                             : en:Chapter 25
  344. 01:03:28.221                             : en:Chapter 26
  345. 01:09:58.319                             : en:Chapter 27
  346. 01:10:38.108                             : en:Chapter 28
  347. 01:12:36.352                             : en:Chapter 29
  348. 01:13:40.332                             : en:Chapter 30
  349. 01:15:36.323                             : en:Chapter 31
  350. 01:16:59.740                             : en:Chapter 32
  351. 01:17:37.736                             : en:Chapter 33
  352. 01:19:48.950                             : en:Chapter 34
  353. 01:23:17.617                             : en:Chapter 35
  354. 01:24:39.324                             : en:Chapter 36
  355. 01:32:53.401                             : en:Chapter 37
复制代码






                                       
                                       

                                       
                                       
                                       




相关帖子

回复

使用道具 举报

蓝光币
0
发表于 2022-12-4 09:12:22 | 显示全部楼层
有没有国配
回复

使用道具 举报

懒得打字嘛,点击右侧快捷回复 【右侧内容,后台自定义】
您需要登录后才可以回帖 登录 | 立即加入

本版积分规则

Archiver| |网站地图

Copyright © 2024 Comsenz Inc. Powered by 蓝光电影网

本站内容由用户自主分享和转载自互联网,转载目的在于传递更多信息,并不代表本网赞同其观点和对其真实性负责。

如有侵权、违反国家法律政策行为,请联系我们,我们会第一时间及时清除和处理!

举报反馈邮箱:4k1080.com@gmail.com

快速回复 返回顶部 返回列表