找回密码

查看: 1420|回复: 0

[2160p] 奇异博士 Doctor.Strange.2016.2160p.BluRay.x264.8bit.SDR.DTS-HD.MA.TrueHD.7.1.Atmos-SWTYBLZ 18.97GB

[复制链接]
蓝光币
1840
发表于 2019-9-29 15:59:45 | 显示全部楼层 |阅读模式


◎译  名 奇异博士 / Dr. Strange / 史奇医生 / 史特兰奇博士 / 奇异医生 / 希奇博士 / 怪奇医生 / 斯特兰奇博士
◎片  名 Doctor Strange
◎年  代 2016
◎产  地 美国
◎类  别 行动 / 奇异 / 冒险
◎语  言 英语
◎上映日期 2016-10-25(英国) / 2016-11-04(中国大陆/美国)
◎IMDb评分  7.5/10 from 534070 users
◎IMDb链接  http://www.imdb.com/title/tt1211837
◎豆瓣评分 7.6/10 from 432767 users
◎豆瓣链接 https://movie.douban.com/subject/3025375/
◎片  长 115分钟
◎导  演 斯科特·德瑞克森 Scott Derrickson
◎编  剧 史蒂夫·迪特寇 Steve Ditko / 托马斯·迪恩·唐纳利 Thomas Dean Donnelly / 斯坦·李 Stan Lee / 乔·斯派茨 Jon Spaihts / Joshua Oppenheimer
◎主  演 本尼迪克特·康伯巴奇 Benedict Cumberbatch
       蒂尔达·斯文顿 Tilda Swinton
       麦斯·米科尔森 Mads Mikkelsen
       切瓦特·埃加福特 Chiwetel Ejiofor
       瑞秋·麦克亚当斯 Rachel McAdams
       迈克尔·斯图巴 Michael Stuhlbarg
       本尼迪克特·王 Benedict Wong
       本杰明·布拉特 Benjamin Bratt
       斯科特·阿金斯 Scott Adkins
       Zara Phythian
       阿拉·萨菲 Alaa Safi

◎标  签 漫威 | 超级豪杰 | 美国 | 科幻 | 奇异 | 2016 | 漫画改编 | 行动
◎简  介  
  斯特兰奇博士(本尼迪克特·康伯巴奇 Benedict Cumberbatch 饰)是一位外科手术医生,他具有着高明的智商和精湛的身手,是医院甚至全部医学界的传奇人物。某一日,斯特兰奇博士遭受了一场可怕的车祸,虽然保住了双手,但这双手遍体鳞伤不住颤抖,这也就意味着,他再也不能拿起手术刀,站在无影灯下了。
  斯特兰奇博士的生活就此落空了意义堕入了失望当中,他决议远赴尼泊尔,寻觅传闻中可以治愈他双手的奥秘气力。在尼泊尔,露宿风餐的斯特兰奇博士拜入了奥秘的古一法师(蒂尔达·斯文顿 Tilda Swinton 饰)门下,成为了其门生,与此同时,古一法师已经的门生卡西利亚斯(麦斯·米科尔森 饰)亦在虎视眈眈,诡计完成他获得永生的大业。
◎获奖情况  
  第89届奥斯卡金像奖(2017)
  最好视觉结果(提名) 斯特凡·切雷蒂 / 文森特·西雷利 / 理查德·布拉夫 / 保罗·科博尔德
  第70届英国电影学院奖(2017)
  电影奖 最好化装/发型(提名) Jeremy Woodhead
  电影奖 最好艺术指导(提名) John Bush / 查尔斯·伍德
  电影奖 最好特别视觉结果(提名) 乔纳森·福克纳尔 / 斯特凡·切雷蒂 / 保罗·科博尔德 / 理查德·布拉夫
  第44届动画安妮奖(2017)
  最好真人电影动画结果
  第23届美国演员工会奖(2017)
  电影最好特技群戏(提名)
  第21届美国艺术指导工会奖(2017)
  电影奖 最好空想电影艺术指导(提名)
  第19届美国打扮设想工会奖(2017)
  科幻/奇异题材电影最好打扮设想
  第15届美国视觉结果协会奖(2017)
  最好殊效电影视觉结果(提名)
  最好真人电影CG布景
  最好电影虚拟摄影(提名)
  最好真人电影模拟动画结果(提名)
  最好电影视觉结果分解(提名)
  第53届美国声音结果协会奖(2017)
  真人电影最好音效(提名)
  第22届美国批评家挑选电影奖(2017)
  最好行动片(提名)
  行动片最好男配角(提名) 本尼迪克特·康伯巴奇
  行动片最好女配角(提名) 蒂尔达·斯文顿
  最好科幻/可骇片(提名)
  最好发型化装(提名)
  最好视觉结果(提名)
  第21届金卫星奖(2017)
  电影部分 最好视觉结果(提名) 斯特凡·切雷蒂 / 文森特·西雷利 / 保罗·科博尔德 / 理查德·布拉夫
  电影部分 最好打扮设想(提名) 亚历山德拉·伯恩
  第20届好莱坞电影奖(2016)
  年度视觉结果
  第3届豆瓣电影年度榜单(2016)
  评分最高的外语电影(提名)
  评分最高的科幻/行动片(提名)
  11月最受关注电影
  1. Video
  2. ID                                       : 1
  3. Format                                   : AVC
  4. Format/Info                              : Advanced Video Codec
  5. Format profile                           : [email protected]
  6. Format settings                          : CABAC / 5 Ref Frames
  7. Format settings, CABAC                   : Yes
  8. Format settings, Reference frames        : 5 frames
  9. Codec ID                                 : V_MPEG4/ISO/AVC
  10. Duration                                 : 1 h 54 min
  11. Bit rate                                 : 13.9 Mb/s
  12. Width                                    : 3 840 pixels
  13. Height                                   : 1 606 pixels
  14. Display aspect ratio                     : 2.40:1
  15. Frame rate mode                          : Constant
  16. Frame rate                               : 23.976 (24000/1001) FPS
  17. Color space                              : YUV
  18. Chroma subsampling                       : 4:2:0
  19. Bit depth                                : 8 bits
  20. Scan type                                : Progressive
  21. Bits/(Pixel*Frame)                       : 0.094
  22. Stream size                              : 11.2 GiB (59%)
  23. Title                                    : Doctor.Strange.2016.2160p.BluRay.x264.8bit.SDR.DTS-HD.MA.TrueHD.7.1.Atmos-SWTYBLZ
  24. Writing library                          : x264 core 157 r2935 545de2f
  25. Encoding settings                        : cabac=1 / ref=5 / deblock=1:-1:-1 / analyse=0x3:0x113 / me=umh / subme=10 / psy=1 / psy_rd=1.00:0.15 / mixed_ref=1 / me_range=48 / chroma_me=1 / trellis=2 / 8x8dct=1 / cqm=0 / deadzone=21,11 / fast_pskip=1 / chroma_qp_offset=-3 / threads=50 / lookahead_threads=4 / sliced_threads=0 / nr=0 / decimate=0 / interlaced=0 / bluray_compat=0 / constrained_intra=0 / bframes=3 / b_pyramid=2 / b_adapt=2 / b_bias=0 / direct=3 / weightb=1 / open_gop=0 / weightp=2 / keyint=250 / keyint_min=23 / scenecut=40 / intra_refresh=0 / rc_lookahead=50 / rc=crf / mbtree=1 / crf=18.0 / qcomp=0.60 / qpmin=0 / qpmax=69 / qpstep=4 / ip_ratio=1.40 / aq=1:1.00
  26. Default                                  : Yes
  27. Forced                                   : No
  28. Audio #1
  29. ID                                       : 2
  30. Format                                   : MLP FBA 16-ch
  31. Format/Info                              : Meridian Lossless Packing FBA with 16-channel presentation
  32. Commercial name                          : Dolby TrueHD with Dolby Atmos
  33. Codec ID                                 : A_TRUEHD
  34. Duration                                 : 1 h 54 min
  35. Bit rate mode                            : Variable
  36. Bit rate                                 : 4 784 kb/s
  37. Maximum bit rate                         : 7 317 kb/s
  38. Channel(s)                               : 8 channels
  39. Channel layout                           : L R C LFE Ls Rs Lb Rb
  40. Sampling rate                            : 48.0 kHz
  41. Frame rate                               : 1 200.000 FPS (40 SPF)
  42. Compression mode                         : Lossless
  43. Stream size                              : 3.84 GiB (20%)
  44. Title                                    : Doctor.Strange.2016.2160p.BluRay.x264.8bit.SDR.DTS-HD.MA.TrueHD.7.1.Atmos-SWTYBLZ
  45. Language                                 : English
  46. Default                                  : Yes
  47. Forced                                   : No
  48. Number of dynamic objects                : 13
  49. Bed channel count                        : 1 channel
  50. Bed channel configuration                : LFE
  51. Audio #2
  52. ID                                       : 3
  53. Format                                   : DTS XLL
  54. Format/Info                              : Digital Theater Systems
  55. Commercial name                          : DTS-HD Master Audio
  56. Codec ID                                 : A_DTS
  57. Duration                                 : 1 h 54 min
  58. Bit rate mode                            : Variable
  59. Bit rate                                 : 4 053 kb/s
  60. Channel(s)                               : 8 channels
  61. Channel layout                           : C L R LFE Lb Rb Lss Rss
  62. Sampling rate                            : 48.0 kHz
  63. Frame rate                               : 93.750 FPS (512 SPF)
  64. Bit depth                                : 24 bits
  65. Compression mode                         : Lossless
  66. Stream size                              : 3.26 GiB (17%)
  67. Title                                    : Doctor.Strange.2016.2160p.BluRay.x264.8bit.SDR.DTS-HD.MA.TrueHD.7.1.Atmos-SWTYBLZ
  68. Language                                 : English
  69. Default                                  : No
  70. Forced                                   : No
  71. Audio #3
  72. ID                                       : 4
  73. Format                                   : AC-3
  74. Format/Info                              : Audio Coding 3
  75. Commercial name                          : Dolby Digital
  76. Codec ID                                 : A_AC3
  77. Duration                                 : 1 h 54 min
  78. Bit rate mode                            : Constant
  79. Bit rate                                 : 640 kb/s
  80. Channel(s)                               : 6 channels
  81. Channel layout                           : L R C LFE Ls Rs
  82. Sampling rate                            : 48.0 kHz
  83. Frame rate                               : 31.250 FPS (1536 SPF)
  84. Bit depth                                : 16 bits
  85. Compression mode                         : Lossy
  86. Stream size                              : 526 MiB (3%)
  87. Title                                    : Doctor.Strange.2016.2160p.BluRay.x264.8bit.SDR.DTS-HD.MA.TrueHD.7.1.Atmos-SWTYBLZ
  88. Language                                 : English
  89. Service kind                             : Complete Main
  90. Default                                  : No
  91. Forced                                   : No
  92. Text #1
  93. ID                                       : 5
  94. Format                                   : UTF-8
  95. Codec ID                                 : S_TEXT/UTF8
  96. Codec ID/Info                            : UTF-8 Plain Text
  97. Duration                                 : 1 h 52 min
  98. Bit rate                                 : 43 b/s
  99. Count of elements                        : 1319
  100. Stream size                              : 36.1 KiB (0%)
  101. Title                                    : English-SRT
  102. Language                                 : English
  103. Default                                  : Yes
  104. Forced                                   : No
  105. Text #2
  106. ID                                       : 6
  107. Format                                   : UTF-8
  108. Codec ID                                 : S_TEXT/UTF8
  109. Codec ID/Info                            : UTF-8 Plain Text
  110. Duration                                 : 1 h 54 min
  111. Bit rate                                 : 49 b/s
  112. Count of elements                        : 1584
  113. Stream size                              : 41.3 KiB (0%)
  114. Title                                    : English-SDH-SRT
  115. Language                                 : English
  116. Default                                  : No
  117. Forced                                   : No
  118. Text #3
  119. ID                                       : 7
  120. Format                                   : PGS
  121. Muxing mode                              : zlib
  122. Codec ID                                 : S_HDMV/PGS
  123. Codec ID/Info                            : Picture based subtitle format used on BDs/HD-DVDs
  124. Duration                                 : 1 h 54 min
  125. Bit rate                                 : 33.2 kb/s
  126. Count of elements                        : 3168
  127. Stream size                              : 27.1 MiB (0%)
  128. Title                                    : English-PGS
  129. Language                                 : English
  130. Default                                  : No
  131. Forced                                   : No
  132. Text #4
  133. ID                                       : 8
  134. Format                                   : PGS
  135. Muxing mode                              : zlib
  136. Codec ID                                 : S_HDMV/PGS
  137. Codec ID/Info                            : Picture based subtitle format used on BDs/HD-DVDs
  138. Duration                                 : 1 h 52 min
  139. Bit rate                                 : 29.6 kb/s
  140. Count of elements                        : 2608
  141. Stream size                              : 23.8 MiB (0%)
  142. Title                                    : French-PGS
  143. Language                                 : French
  144. Default                                  : No
  145. Forced                                   : No
  146. Text #5
  147. ID                                       : 9
  148. Format                                   : PGS
  149. Muxing mode                              : zlib
  150. Codec ID                                 : S_HDMV/PGS
  151. Codec ID/Info                            : Picture based subtitle format used on BDs/HD-DVDs
  152. Duration                                 : 1 h 52 min
  153. Bit rate                                 : 24.8 kb/s
  154. Count of elements                        : 2344
  155. Stream size                              : 20.0 MiB (0%)
  156. Title                                    : French-PGS
  157. Language                                 : French
  158. Default                                  : No
  159. Forced                                   : No
  160. Text #6
  161. ID                                       : 10
  162. Format                                   : PGS
  163. Muxing mode                              : zlib
  164. Codec ID                                 : S_HDMV/PGS
  165. Codec ID/Info                            : Picture based subtitle format used on BDs/HD-DVDs
  166. Duration                                 : 1 h 52 min
  167. Bit rate                                 : 28.2 kb/s
  168. Count of elements                        : 2562
  169. Stream size                              : 22.6 MiB (0%)
  170. Title                                    : Spanish-PGS
  171. Language                                 : Spanish
  172. Default                                  : No
  173. Forced                                   : No
  174. Text #7
  175. ID                                       : 11
  176. Format                                   : PGS
  177. Muxing mode                              : zlib
  178. Codec ID                                 : S_HDMV/PGS
  179. Codec ID/Info                            : Picture based subtitle format used on BDs/HD-DVDs
  180. Duration                                 : 1 h 52 min
  181. Bit rate                                 : 30.6 kb/s
  182. Count of elements                        : 2548
  183. Stream size                              : 24.6 MiB (0%)
  184. Title                                    : German-PGS
  185. Language                                 : German
  186. Default                                  : No
  187. Forced                                   : No
  188. Text #8
  189. ID                                       : 12
  190. Format                                   : PGS
  191. Muxing mode                              : zlib
  192. Codec ID                                 : S_HDMV/PGS
  193. Codec ID/Info                            : Picture based subtitle format used on BDs/HD-DVDs
  194. Duration                                 : 1 h 52 min
  195. Bit rate                                 : 28.5 kb/s
  196. Count of elements                        : 2556
  197. Stream size                              : 22.9 MiB (0%)
  198. Title                                    : Italian-PGS
  199. Language                                 : Italian
  200. Default                                  : No
  201. Forced                                   : No
  202. Text #9
  203. ID                                       : 13
  204. Format                                   : PGS
  205. Muxing mode                              : zlib
  206. Codec ID                                 : S_HDMV/PGS
  207. Codec ID/Info                            : Picture based subtitle format used on BDs/HD-DVDs
  208. Duration                                 : 1 h 52 min
  209. Bit rate                                 : 19.5 kb/s
  210. Count of elements                        : 2236
  211. Stream size                              : 15.7 MiB (0%)
  212. Title                                    : Japanese-PGS
  213. Language                                 : Japanese
  214. Default                                  : No
  215. Forced                                   : No
  216. Text #10
  217. ID                                       : 14
  218. Format                                   : PGS
  219. Muxing mode                              : zlib
  220. Codec ID                                 : S_HDMV/PGS
  221. Codec ID/Info                            : Picture based subtitle format used on BDs/HD-DVDs
  222. Duration                                 : 1 h 52 min
  223. Bit rate                                 : 26.9 kb/s
  224. Count of elements                        : 2562
  225. Stream size                              : 21.6 MiB (0%)
  226. Title                                    : Norwegian-PGS
  227. Language                                 : Norwegian
  228. Default                                  : No
  229. Forced                                   : No
  230. Text #11
  231. ID                                       : 15
  232. Format                                   : PGS
  233. Muxing mode                              : zlib
  234. Codec ID                                 : S_HDMV/PGS
  235. Codec ID/Info                            : Picture based subtitle format used on BDs/HD-DVDs
  236. Duration                                 : 1 h 52 min
  237. Bit rate                                 : 25.1 kb/s
  238. Count of elements                        : 1768
  239. Stream size                              : 20.1 MiB (0%)
  240. Title                                    : Swedish-PGS
  241. Language                                 : Swedish
  242. Default                                  : No
  243. Forced                                   : No
  244. Menu
  245. 00:00:00.000                             : en:Chapter 01
  246. 00:04:34.232                             : en:Chapter 02
  247. 00:10:16.532                             : en:Chapter 03
  248. 00:18:31.860                             : en:Chapter 04
  249. 00:24:36.725                             : en:Chapter 05
  250. 00:31:39.939                             : en:Chapter 06
  251. 00:38:33.519                             : en:Chapter 07
  252. 00:43:15.801                             : en:Chapter 08
  253. 00:48:24.234                             : en:Chapter 09
  254. 00:55:34.205                             : en:Chapter 10
  255. 01:05:03.774                             : en:Chapter 11
  256. 01:12:38.145                             : en:Chapter 12
  257. 01:22:14.054                             : en:Chapter 13
  258. 01:28:28.344                             : en:Chapter 14
  259. 01:35:00.319                             : en:Chapter 15
  260. 01:45:06.216                             : en:Chapter 16
复制代码










                                       
                                       

                                       
                                       
                                       




回复

使用道具 举报

懒得打字嘛,点击右侧快捷回复 【右侧内容,后台自定义】
您需要登录后才可以回帖 登录 | 立即加入

本版积分规则

Copyright © 2024 Comsenz Inc. Powered by 蓝光电影网

本站内容由用户自主分享和转载自互联网,转载目的在于传递更多信息,并不代表本网赞同其观点和对其真实性负责。

如有侵权、违反国家法律政策行为,请联系我们,我们会第一时间及时清除和处理!

举报反馈邮箱:4k1080.com@gmail.com

快速回复 返回顶部 返回列表