找回密码

查看: 1175|回复: 0

[UHD.HEVC] 揭秘海军陆战队 We.the.Marines.2017.DOCU.2160p.BluRay.REMUX.HEVC.HDR.DTS-HD.MA.TrueHD.7.1.Atmos-FGT 17.80GB

[复制链接]
蓝光币
1858
发表于 2020-9-3 20:18:27 | 显示全部楼层 |阅读模式


◎译  名 揭秘水兵陆战队
◎片  名 We, the Marines
◎年  代 2017
◎产  地 美国
◎类  别 记载片 / 短片
◎语  言 英语
◎上映日期 2017-07-21(美国)
◎IMDb评分  5.4/10 from 395 users
◎IMDb链接  https://www.imdb.com/title/tt7422506/
◎豆瓣评分 /10 from 0 users
◎豆瓣链接 https://movie.douban.com/subject/30269830/
◎片  长 38分钟
◎导  演 格雷戈·迈吉里弗雷 Greg MacGillivray
◎主  演 吉恩·哈克曼 Gene Hackman
◎标  签 记载片 | 军事 | 美国 | 2017 | 短片 | IMAX | 美国电影 | 紀錄片
◎简  介


  这部记载片由身位演员和前水兵陆战队员的金·哈可曼讲解,展现了美国水兵陆战队成员的长大履历。
  1. Video
  2. ID                                       : 1
  3. ID in the original source medium         : 4113 (0x1011)
  4. Format                                   : HEVC
  5. Format/Info                              : High Efficiency Video Coding
  6. Format profile                           : Main [email protected]@High
  7. HDR format                               : SMPTE ST 2094 App 4, Version 1, HDR10+ Profile A compatible
  8. Codec ID                                 : V_MPEGH/ISO/HEVC
  9. Duration                                 : 37 min 53 s
  10. Bit rate                                 : 59.6 Mb/s
  11. Width                                    : 3 840 pixels
  12. Height                                   : 2 160 pixels
  13. Display aspect ratio                     : 16:9
  14. Frame rate mode                          : Constant
  15. Frame rate                               : 24.000 FPS
  16. Color space                              : YUV
  17. Chroma subsampling                       : 4:2:0 (Type 2)
  18. Bit depth                                : 10 bits
  19. Bits/(Pixel*Frame)                       : 0.299
  20. Stream size                              : 15.8 GiB (89%)
  21. Title                                    : We.the.Marines.2017.DOCU.2160p.BluRay.REMUX.HEVC.HDR.DTS-HD.MA.TrueHD.7.1.Atmos-FGT
  22. Language                                 : English
  23. Default                                  : No
  24. Forced                                   : No
  25. Color range                              : Limited
  26. Color primaries                          : BT.2020
  27. Transfer characteristics                 : PQ
  28. Matrix coefficients                      : BT.2020 non-constant
  29. Mastering display color primaries        : BT.2020
  30. Mastering display luminance              : min: 0.0001 cd/m2, max: 1000 cd/m2
  31. Maximum Content Light Level              : 987 cd/m2
  32. Maximum Frame-Average Light Level        : 340 cd/m2
  33. Original source medium                   : Blu-ray
  34. Audio #1
  35. ID                                       : 2
  36. ID in the original source medium         : 4352 (0x1100)
  37. Format                                   : MLP FBA 16-ch
  38. Format/Info                              : Meridian Lossless Packing FBA with 16-channel presentation
  39. Commercial name                          : Dolby TrueHD with Dolby Atmos
  40. Codec ID                                 : A_TRUEHD
  41. Duration                                 : 37 min 53 s
  42. Bit rate mode                            : Variable
  43. Bit rate                                 : 2 943 kb/s
  44. Maximum bit rate                         : 4 014 kb/s
  45. Channel(s)                               : 8 channels
  46. Channel layout                           : L R C LFE Ls Rs Lb Rb
  47. Sampling rate                            : 48.0 kHz
  48. Frame rate                               : 1 200.000 FPS (40 SPF)
  49. Compression mode                         : Lossless
  50. Stream size                              : 798 MiB (4%)
  51. Title                                    : We.the.Marines.2017.DOCU.2160p.BluRay.REMUX.HEVC.HDR.DTS-HD.MA.TrueHD.7.1.Atmos-FGT
  52. Language                                 : English
  53. Default                                  : Yes
  54. Forced                                   : No
  55. Original source medium                   : Blu-ray
  56. Number of dynamic objects                : 15
  57. Bed channel count                        : 1 channel
  58. Bed channel configuration                : LFE
  59. Audio #2
  60. ID                                       : 3
  61. Format                                   : DTS XLL
  62. Format/Info                              : Digital Theater Systems
  63. Commercial name                          : DTS-HD Master Audio
  64. Codec ID                                 : A_DTS
  65. Duration                                 : 37 min 53 s
  66. Bit rate mode                            : Variable
  67. Bit rate                                 : 3 979 kb/s
  68. Channel(s)                               : 8 channels
  69. Channel layout                           : C L R LFE Lb Rb Lss Rss
  70. Sampling rate                            : 48.0 kHz
  71. Frame rate                               : 93.750 FPS (512 SPF)
  72. Bit depth                                : 24 bits
  73. Compression mode                         : Lossless
  74. Stream size                              : 1.05 GiB (6%)
  75. Title                                    : We.the.Marines.2017.DOCU.2160p.BluRay.REMUX.HEVC.HDR.DTS-HD.MA.TrueHD.7.1.Atmos-FGT
  76. Language                                 : English
  77. Default                                  : No
  78. Forced                                   : No
  79. Audio #3
  80. ID                                       : 4
  81. ID in the original source medium         : 4352 (0x1100)
  82. Format                                   : AC-3
  83. Format/Info                              : Audio Coding 3
  84. Commercial name                          : Dolby Digital
  85. Codec ID                                 : A_AC3
  86. Duration                                 : 37 min 53 s
  87. Bit rate mode                            : Constant
  88. Bit rate                                 : 640 kb/s
  89. Channel(s)                               : 6 channels
  90. Channel layout                           : L R C LFE Ls Rs
  91. Sampling rate                            : 48.0 kHz
  92. Frame rate                               : 31.250 FPS (1536 SPF)
  93. Compression mode                         : Lossy
  94. Stream size                              : 173 MiB (1%)
  95. Title                                    : We.the.Marines.2017.DOCU.2160p.BluRay.REMUX.HEVC.HDR.DTS-HD.MA.TrueHD.7.1.Atmos-FGT
  96. Language                                 : English
  97. Service kind                             : Complete Main
  98. Default                                  : No
  99. Forced                                   : No
  100. Original source medium                   : Blu-ray
  101. Text #1
  102. ID                                       : 5
  103. Format                                   : UTF-8
  104. Codec ID                                 : S_TEXT/UTF8
  105. Codec ID/Info                            : UTF-8 Plain Text
  106. Duration                                 : 37 min 23 s
  107. Bit rate                                 : 65 b/s
  108. Count of elements                        : 572
  109. Stream size                              : 17.9 KiB (0%)
  110. Title                                    : English-SRT
  111. Language                                 : English
  112. Default                                  : Yes
  113. Forced                                   : No
  114. Text #2
  115. ID                                       : 6
  116. Format                                   : UTF-8
  117. Codec ID                                 : S_TEXT/UTF8
  118. Codec ID/Info                            : UTF-8 Plain Text
  119. Duration                                 : 37 min 48 s
  120. Bit rate                                 : 72 b/s
  121. Count of elements                        : 643
  122. Stream size                              : 20.2 KiB (0%)
  123. Title                                    : English-SDH-SRT
  124. Language                                 : English
  125. Default                                  : No
  126. Forced                                   : No
  127. Text #3
  128. ID                                       : 7
  129. ID in the original source medium         : 4768 (0x12A0)
  130. Format                                   : PGS
  131. Muxing mode                              : zlib
  132. Codec ID                                 : S_HDMV/PGS
  133. Codec ID/Info                            : Picture based subtitle format used on BDs/HD-DVDs
  134. Duration                                 : 37 min 48 s
  135. Bit rate                                 : 30.3 kb/s
  136. Count of elements                        : 1292
  137. Stream size                              : 8.20 MiB (0%)
  138. Title                                    : English-PGS
  139. Language                                 : English
  140. Default                                  : No
  141. Forced                                   : No
  142. Original source medium                   : Blu-ray
  143. Menu
  144. 00:00:00.000                             : en:Chapter 01
  145. 00:04:14.500                             : en:Chapter 02
  146. 00:09:58.375                             : en:Chapter 03
  147. 00:14:02.416                             : en:Chapter 04
  148. 00:18:11.625                             : en:Chapter 05
  149. 00:21:08.583                             : en:Chapter 06
  150. 00:25:02.708                             : en:Chapter 07
  151. 00:28:49.333                             : en:Chapter 08
  152. 00:32:38.958                             : en:Chapter 09
  153. 00:37:04.125                             : en:Chapter 10
复制代码



                                       
                                       

                                       
                                       
                                       




回复

使用道具 举报

懒得打字嘛,点击右侧快捷回复 【右侧内容,后台自定义】
您需要登录后才可以回帖 登录 | 立即加入

本版积分规则

Copyright © 2024 Comsenz Inc. Powered by 蓝光电影网

本站内容由用户自主分享和转载自互联网,转载目的在于传递更多信息,并不代表本网赞同其观点和对其真实性负责。

如有侵权、违反国家法律政策行为,请联系我们,我们会第一时间及时清除和处理!

举报反馈邮箱:4k1080.com@gmail.com

快速回复 返回顶部 返回列表