找回密码

查看: 1035|回复: 0

[UHD.HEVC] 女人/野蛮女人 The.Woman.2011.2160p.BluRay.REMUX.HEVC.DTS-HD.MA.5.1-FGT 42.55GB

[复制链接]
蓝光币
1840
发表于 2020-9-25 15:45:07 | 显示全部楼层 |阅读模式


◎译  名 女人/蛮横女人
◎片  名 The Woman
◎年  代 2011
◎产  地 美国
◎类  别 可骇
◎语  言 英语
◎上映日期 2011
◎IMDb评分  6/10 from 21582 users
◎IMDb链接  https://www.imdb.com/title/tt1714208/
◎豆瓣评分 6.4/10 from 1768 users
◎豆瓣链接 https://movie.douban.com/subject/5326608/
◎片  长 103分钟
◎导  演 拉齐·马凯 Lucky McKee
◎编  剧 拉齐·马凯 Lucky McKee / 杰克·珂强 Jack Ketchum
◎主  演 安吉拉·贝蒂斯 Angela Bettis
       宝拉雅娜·麦金托什 Pollyanna McIntosh
       肖恩·布里吉格斯 Sean Bridgers
       劳伦·阿什利·卡特 Lauren Ashley Carter
◎标  签 可骇 | 血腥 | 美国 | 惊悚 | 美国电影 | cult | 2011 | Cult
◎简  介


  影片报告了一个从小被抛弃于森林,依照动物保存形式存活下来的女人。被一个汉子抢劫回家而且受尽凌辱。这家人中,男仆人极端大男人主义,敌视女人。小儿子由于受父亲教导也对女人极不尊重。懦弱并唾面自干的母亲,被父亲欺侮而怀孕的大女儿,以及不谙世事的小女儿。故事的最初,大女儿在极端失望和恐惧的安排下放了野女人,野女人杀了她的怙恃和弟弟,带走了她的妹妹。   本片以不太可骇的空气,却深入的暗喻了一个至今仍然存在的严重的社会现象,汉子应当若何看待女人,女人应当若何正确饰演家庭中的脚色。
  1. Video
  2. ID                                       : 1
  3. ID in the original source medium         : 4113 (0x1011)
  4. Format                                   : HEVC
  5. Format/Info                              : High Efficiency Video Coding
  6. Format profile                           : Main [email protected]@High
  7. HDR format                               : SMPTE ST 2094 App 4, Version 1, HDR10+ Profile A compatible
  8. Codec ID                                 : V_MPEGH/ISO/HEVC
  9. Duration                                 : 1 h 43 min
  10. Bit rate                                 : 53.8 Mb/s
  11. Width                                    : 3 840 pixels
  12. Height                                   : 2 160 pixels
  13. Display aspect ratio                     : 16:9
  14. Frame rate mode                          : Constant
  15. Frame rate                               : 23.976 (24000/1001/189150) FPS
  16. Color space                              : YUV
  17. Chroma subsampling                       : 4:2:0 (Type 2)
  18. Bit depth                                : 10 bits
  19. Bits/(Pixel*Frame)                       : 0.271
  20. Stream size                              : 38.7 GiB (91%)
  21. Title                                    : The.Woman.2011.2160p.BluRay.REMUX.HEVC.DTS-HD.MA.5.1-FGT
  22. Language                                 : English
  23. Default                                  : No
  24. Forced                                   : No
  25. Color range                              : Limited
  26. Color primaries                          : BT.2020
  27. Transfer characteristics                 : PQ
  28. Matrix coefficients                      : BT.2020 non-constant
  29. Mastering display color primaries        : Display P3
  30. Mastering display luminance              : min: 0.0050 cd/m2, max: 1000 cd/m2
  31. Maximum Content Light Level              : 1000 cd/m2
  32. Maximum Frame-Average Light Level        : 400 cd/m2
  33. Original source medium                   : Blu-ray
  34. Audio #1
  35. ID                                       : 2
  36. ID in the original source medium         : 4353 (0x1101)
  37. Format                                   : DTS XLL
  38. Format/Info                              : Digital Theater Systems
  39. Commercial name                          : DTS-HD Master Audio
  40. Codec ID                                 : A_DTS
  41. Duration                                 : 1 h 43 min
  42. Bit rate mode                            : Variable
  43. Bit rate                                 : 2 328 kb/s
  44. Channel(s)                               : 6 channels
  45. Channel layout                           : C L R Ls Rs LFE
  46. Sampling rate                            : 48.0 kHz
  47. Frame rate                               : 93.750 FPS (512 SPF)
  48. Bit depth                                : 16 bits
  49. Compression mode                         : Lossless
  50. Stream size                              : 1.68 GiB (4%)
  51. Title                                    : The.Woman.2011.2160p.BluRay.REMUX.HEVC.DTS-HD.MA.5.1-FGT
  52. Language                                 : English
  53. Default                                  : Yes
  54. Forced                                   : No
  55. Original source medium                   : Blu-ray
  56. Audio #2
  57. ID                                       : 3
  58. ID in the original source medium         : 4352 (0x1100)
  59. Format                                   : DTS XLL
  60. Format/Info                              : Digital Theater Systems
  61. Commercial name                          : DTS-HD Master Audio
  62. Codec ID                                 : A_DTS
  63. Duration                                 : 1 h 43 min
  64. Bit rate mode                            : Variable
  65. Bit rate                                 : 2 695 kb/s
  66. Channel(s)                               : 8 channels
  67. Channel layout                           : C L R LFE Lb Rb Lss Rss
  68. Sampling rate                            : 48.0 kHz
  69. Frame rate                               : 93.750 FPS (512 SPF)
  70. Bit depth                                : 16 bits
  71. Compression mode                         : Lossless
  72. Stream size                              : 1.94 GiB (5%)
  73. Title                                    : The.Woman.2011.2160p.BluRay.REMUX.HEVC.DTS-HD.MA.5.1-FGT
  74. Language                                 : German
  75. Default                                  : No
  76. Forced                                   : No
  77. Original source medium                   : Blu-ray
  78. Audio #3
  79. ID                                       : 4
  80. ID in the original source medium         : 4356 (0x1104)
  81. Format                                   : AC-3
  82. Format/Info                              : Audio Coding 3
  83. Commercial name                          : Dolby Digital
  84. Codec ID                                 : A_AC3
  85. Duration                                 : 1 h 43 min
  86. Bit rate mode                            : Constant
  87. Bit rate                                 : 224 kb/s
  88. Channel(s)                               : 2 channels
  89. Channel layout                           : L R
  90. Sampling rate                            : 48.0 kHz
  91. Frame rate                               : 31.250 FPS (1536 SPF)
  92. Compression mode                         : Lossy
  93. Stream size                              : 165 MiB (0%)
  94. Title                                    : The.Woman.2011.2160p.BluRay.REMUX.HEVC.DTS-HD.MA.5.1-FGT
  95. Language                                 : English
  96. Service kind                             : Complete Main
  97. Default                                  : No
  98. Forced                                   : No
  99. Original source medium                   : Blu-ray
  100. Text #1
  101. ID                                       : 5
  102. Format                                   : UTF-8
  103. Codec ID                                 : S_TEXT/UTF8
  104. Codec ID/Info                            : UTF-8 Plain Text
  105. Duration                                 : 1 h 29 min
  106. Bit rate                                 : 33 b/s
  107. Count of elements                        : 789
  108. Stream size                              : 22.0 KiB (0%)
  109. Title                                    : English-SRT
  110. Language                                 : English
  111. Default                                  : Yes
  112. Forced                                   : No
  113. Text #2
  114. ID                                       : 6
  115. ID in the original source medium         : 4768 (0x12A0)
  116. Format                                   : PGS
  117. Muxing mode                              : zlib
  118. Codec ID                                 : S_HDMV/PGS
  119. Codec ID/Info                            : Picture based subtitle format used on BDs/HD-DVDs
  120. Duration                                 : 2 s 315 ms
  121. Bit rate                                 : 30.6 kb/s
  122. Count of elements                        : 2
  123. Stream size                              : 8.65 KiB (0%)
  124. Title                                    : German-PGS
  125. Language                                 : German
  126. Default                                  : No
  127. Forced                                   : No
  128. Original source medium                   : Blu-ray
  129. Text #3
  130. ID                                       : 7
  131. ID in the original source medium         : 4769 (0x12A1)
  132. Format                                   : PGS
  133. Muxing mode                              : zlib
  134. Codec ID                                 : S_HDMV/PGS
  135. Codec ID/Info                            : Picture based subtitle format used on BDs/HD-DVDs
  136. Duration                                 : 1 h 29 min
  137. Bit rate                                 : 27.1 kb/s
  138. Count of elements                        : 1585
  139. Stream size                              : 17.4 MiB (0%)
  140. Title                                    : German-PGS
  141. Language                                 : German
  142. Default                                  : No
  143. Forced                                   : No
  144. Original source medium                   : Blu-ray
  145. Text #4
  146. ID                                       : 8
  147. ID in the original source medium         : 4770 (0x12A2)
  148. Format                                   : PGS
  149. Muxing mode                              : zlib
  150. Codec ID                                 : S_HDMV/PGS
  151. Codec ID/Info                            : Picture based subtitle format used on BDs/HD-DVDs
  152. Duration                                 : 1 h 29 min
  153. Bit rate                                 : 23.8 kb/s
  154. Count of elements                        : 1578
  155. Stream size                              : 15.2 MiB (0%)
  156. Title                                    : English-PGS
  157. Language                                 : English
  158. Default                                  : No
  159. Forced                                   : No
  160. Original source medium                   : Blu-ray
  161. Menu
  162. 00:00:00.000                             : en:Chapter 01
  163. 00:05:01.926                             : en:Chapter 02
  164. 00:09:35.116                             : en:Chapter 03
  165. 00:17:10.154                             : en:Chapter 04
  166. 00:24:10.365                             : en:Chapter 05
  167. 00:31:39.314                             : en:Chapter 06
  168. 00:36:37.695                             : en:Chapter 07
  169. 00:42:40.558                             : en:Chapter 08
  170. 00:48:27.779                             : en:Chapter 09
  171. 00:55:48.219                             : en:Chapter 10
  172. 01:02:14.439                             : en:Chapter 11
  173. 01:09:31.167                             : en:Chapter 12
  174. 01:17:59.800                             : en:Chapter 13
  175. 01:23:24.374                             : en:Chapter 14
  176. 01:30:58.870                             : en:Chapter 15
  177. 01:36:58.395                             : en:Chapter 16
复制代码




                                       
                                       

                                       
                                       
                                       




回复

使用道具 举报

懒得打字嘛,点击右侧快捷回复 【右侧内容,后台自定义】
您需要登录后才可以回帖 登录 | 立即加入

本版积分规则

Copyright © 2024 Comsenz Inc. Powered by 蓝光电影网

本站内容由用户自主分享和转载自互联网,转载目的在于传递更多信息,并不代表本网赞同其观点和对其真实性负责。

如有侵权、违反国家法律政策行为,请联系我们,我们会第一时间及时清除和处理!

举报反馈邮箱:4k1080.com@gmail.com

快速回复 返回顶部 返回列表