找回密码

查看: 1528|回复: 0

[剧情] The Big Ask/The Big Ask(美国) The.Big.Ask.2013.1080p.AMZN.WEBRip.DDP5.1.x264-monkee 6.41GB

[复制链接]
蓝光币
2027
发表于 2021-8-20 00:56:47 | 显示全部楼层 |阅读模式


◎译  名 The Big Ask/The Big Ask(美国)/熊公仔
◎片  名 Teddy Bears
◎年  代 2013
◎产  地 美国
◎类  别 剧情 / 笑剧
◎语  言 英语
◎上映日期 2014-05-20(美国)
◎IMDb评分  4.8/10 from 562 users
◎IMDb链接  https://www.imdb.com/title/tt2327541/
◎豆瓣评分 /10 from 0 users
◎豆瓣链接 https://movie.douban.com/subject/20107639/
◎主  演 吉莉安·雅各布斯 Gillian Jacobs
       扎克里·奈顿 Zachary Knighton
       大卫·克朗姆霍茨 David Krumholtz
       梅兰妮·林斯基 Melanie Lynskey
       阿娜·欧蕾利 Ahna O'Reilly
       戴尔·迪奇 Dale Dickey
◎标  签 美国 | 电影 | [歐美] | MelanieLynskey
◎简  介


  Teddy Bears is a dark comedy about three couples who head to the desert to help their friend heal after the death of his mother. They would do anything for him - except for the one thing he wants.
  1. Video
  2. ID                                       : 1
  3. Format                                   : AVC
  4. Format/Info                              : Advanced Video Codec
  5. Format profile                           : [email protected]
  6. Format settings                          : CABAC / 4 Ref Frames
  7. Format settings, CABAC                   : Yes
  8. Format settings, Reference frames        : 4 frames
  9. Codec ID                                 : V_MPEG4/ISO/AVC
  10. Duration                                 : 1 h 30 min
  11. Bit rate mode                            : Constant
  12. Bit rate                                 : 9 486 kb/s
  13. Nominal bit rate                         : 10 000 kb/s
  14. Width                                    : 1 920 pixels
  15. Height                                   : 1 040 pixels
  16. Display aspect ratio                     : 1.85:1
  17. Frame rate mode                          : Constant
  18. Frame rate                               : 23.976 (24000/1001/189150) FPS
  19. Color space                              : YUV
  20. Chroma subsampling                       : 4:2:0
  21. Bit depth                                : 8 bits
  22. Scan type                                : Progressive
  23. Bits/(Pixel*Frame)                       : 0.198
  24. Stream size                              : 6.01 GiB (94%)
  25. Default                                  : Yes
  26. Forced                                   : No
  27. Color range                              : Limited
  28. Color primaries                          : BT.709
  29. Transfer characteristics                 : BT.709
  30. Matrix coefficients                      : BT.709
  31. Audio
  32. ID                                       : 2
  33. Format                                   : E-AC-3
  34. Format/Info                              : Enhanced AC-3
  35. Commercial name                          : Dolby Digital Plus
  36. Codec ID                                 : A_EAC3
  37. Duration                                 : 1 h 30 min
  38. Bit rate mode                            : Constant
  39. Bit rate                                 : 640 kb/s
  40. Channel(s)                               : 6 channels
  41. Channel layout                           : L R C LFE Ls Rs
  42. Sampling rate                            : 48.0 kHz
  43. Frame rate                               : 31.250 FPS (1536 SPF)
  44. Compression mode                         : Lossy
  45. Stream size                              : 415 MiB (6%)
  46. Language                                 : English
  47. Service kind                             : Complete Main
  48. Default                                  : Yes
  49. Forced                                   : No
  50. Text #1
  51. ID                                       : 3
  52. Format                                   : UTF-8
  53. Codec ID                                 : S_TEXT/UTF8
  54. Codec ID/Info                            : UTF-8 Plain Text
  55. Duration                                 : 1 h 22 min
  56. Bit rate                                 : 50 b/s
  57. Count of elements                        : 1194
  58. Stream size                              : 30.4 KiB (0%)
  59. Language                                 : English
  60. Default                                  : No
  61. Forced                                   : No
  62. Text #2
  63. ID                                       : 4
  64. Format                                   : UTF-8
  65. Codec ID                                 : S_TEXT/UTF8
  66. Codec ID/Info                            : UTF-8 Plain Text
  67. Duration                                 : 1 h 24 min
  68. Bit rate                                 : 52 b/s
  69. Count of elements                        : 1297
  70. Stream size                              : 32.5 KiB (0%)
  71. Title                                    : SDH
  72. Language                                 : English
  73. Default                                  : No
  74. Forced                                   : No
复制代码






                                       
                                       

                                       
                                       
                                       




回复

使用道具 举报

懒得打字嘛,点击右侧快捷回复 【右侧内容,后台自定义】
您需要登录后才可以回帖 登录 | 立即加入

本版积分规则

Archiver| |网站地图

Copyright © 2024 Comsenz Inc. Powered by 蓝光电影网

本站内容由用户自主分享和转载自互联网,转载目的在于传递更多信息,并不代表本网赞同其观点和对其真实性负责。

如有侵权、违反国家法律政策行为,请联系我们,我们会第一时间及时清除和处理!

举报反馈邮箱:4k1080.com@gmail.com

快速回复 返回顶部 返回列表