找回密码

蓝光电影网

查看: 84|回复: 0

[2160p] 车速过快 Spree.2020.2160p.WEB.H265-HUZZAH 9.57GB

[复制链接]
蓝光币
1084
发表于 2020-8-16 17:47:13 | 显示全部楼层 |阅读模式


◎译  名 车速过快
◎片  名 Spree
◎年  代 2020
◎产  地 美国
◎类  别 笑剧 / 惊悚
◎语  言 英语
◎上映日期 2020-01-24(圣丹斯电影节) / 2020-08-14(美国)
◎IMDb评分  6.0/10 from 65 users
◎IMDb链接  https://www.imdb.com/title/tt11394332
◎豆瓣评分 0/10 from 0 users
◎豆瓣链接 https://movie.douban.com/subject/34907407/
◎片  长 93分钟
◎导  演 Eugene Kotlyarenko
◎编  剧 Eugene Kotlyarenko / Gene McHugh
◎主  演 乔·基瑞 Joe Keery
       萨西尔·扎玛塔 Sasheer Zamata
       大卫·阿奎特 David Arquette
       凯尔·穆尼 Kyle Mooney
       米莎·巴顿 Mischa Barton
       拉拉·肯特 Lala Kent
       约翰·德卢卡 John DeLuca
       杰萨琳·吉尔西格 Jessalyn Gilsig
       肖恩·艾弗里 Sean Avery
       Frankie Grande
       Joshua Ovalle
       Reatha Grey
       Caroline Hebert
       Sunny Kim
       Linas Phillips
       Randy Vasquez

◎标  签 惊悚 | 美国 | 2020 | 笑剧 | 可骇 | 电影 | R-美国 | Eugene_Kotlyarenko
◎简  介

  
  影片由尤金·科特亚伦科执导,《怪奇物语》演员乔·基瑞主演,他在片中饰演的是一个为了追求刺激,在网上直播凌虐乘客的网约车司机。
  1. Video
  2. ID                                       : 1
  3. Format                                   : HEVC
  4. Format/Info                              : High Efficiency Video Coding
  5. Format profile                           : [email protected]@Main
  6. Codec ID                                 : V_MPEGH/ISO/HEVC
  7. Duration                                 : 1 h 32 min
  8. Bit rate                                 : 14.5 Mb/s
  9. Width                                    : 3 840 pixels
  10. Height                                   : 2 160 pixels
  11. Display aspect ratio                     : 16:9
  12. Frame rate mode                          : Constant
  13. Frame rate                               : 23.976 (24000/1001/189150) FPS
  14. Color space                              : YUV
  15. Chroma subsampling                       : 4:2:0
  16. Bit depth                                : 8 bits
  17. Bits/(Pixel*Frame)                       : 0.073
  18. Stream size                              : 9.40 GiB (98%)
  19. Default                                  : Yes
  20. Forced                                   : No
  21. Color range                              : Limited
  22. Color primaries                          : BT.709
  23. Transfer characteristics                 : BT.709
  24. Matrix coefficients                      : BT.709
  25. Audio
  26. ID                                       : 2
  27. Format                                   : E-AC-3
  28. Format/Info                              : Enhanced AC-3
  29. Commercial name                          : Dolby Digital Plus
  30. Codec ID                                 : A_EAC3
  31. Duration                                 : 1 h 32 min
  32. Bit rate mode                            : Constant
  33. Bit rate                                 : 256 kb/s
  34. Channel(s)                               : 6 channels
  35. Channel layout                           : L R C LFE Ls Rs
  36. Sampling rate                            : 48.0 kHz
  37. Frame rate                               : 31.250 FPS (1536 SPF)
  38. Compression mode                         : Lossy
  39. Stream size                              : 169 MiB (2%)
  40. Language                                 : English
  41. Service kind                             : Complete Main
  42. Default                                  : Yes
  43. Forced                                   : No
  44. Text
  45. ID                                       : 3
  46. Format                                   : UTF-8
  47. Codec ID                                 : S_TEXT/UTF8
  48. Codec ID/Info                            : UTF-8 Plain Text
  49. Duration                                 : 1 h 28 min
  50. Bit rate                                 : 93 b/s
  51. Count of elements                        : 1896
  52. Stream size                              : 61.1 KiB (0%)
  53. Language                                 : English
  54. Default                                  : No
  55. Forced                                   : No
复制代码





                                       
                                       

                                       
                                       
                                       




回复

使用道具 举报

懒得打字嘛,点击右侧快捷回复 【右侧内容,后台自定义】
您需要登录后才可以回帖 登录 | 立即加入

本版积分规则

Archiver|小黑屋| 蓝光电影网 |网站地图

Copyright © 2021 Comsenz Inc. Powered by 蓝光电影网

蓝光电影网

本站内容由用户自主分享和转载自互联网,转载目的在于传递更多信息,并不代表本网赞同其观点和对其真实性负责。

如有侵权、违反国家法律政策行为,请联系我们,我们会第一时间及时清除和处理!

举报反馈邮箱:[email protected]

快速回复 返回顶部 返回列表