找回密码

蓝光电影网

查看: 242|回复: 0

[UHD.HEVC] 霍比特人1:意外之旅 The.Hobbit.An.Unexpected.Journey.2012.EXTENDED.2160p.BluRay.REMUX.HEVC.DTS-HD.MA.TrueHD.7.1.Atmos-FGT 75.67GB

[复制链接]
蓝光币
1080
发表于 2020-12-3 10:00:08 | 显示全部楼层 |阅读模式


◎译  名 霍比特人1:意外之旅/The Hobbit: Part 1/哈比人:不思议之旅(港)/哈比人:意外旅程(台)/指环王前传:霍比特人(上)
◎片  名 The Hobbit: An Unexpected Journey
◎年  代 2012
◎产  地 美国,新西兰
◎类  别 行动 / 奇异 / 冒险
◎语  言 英语
◎上映日期 2012-11-28(新西兰首映) / 2012-12-14(美国) / 2013-02-22(中国大陆)
◎IMDb评分  7.8/10 from 751208 users
◎IMDb链接  https://www.imdb.com/title/tt0903624/
◎豆瓣评分 8.3/10 from 335831 users
◎豆瓣链接 https://movie.douban.com/subject/1966182/
◎片  长 169分钟
◎导  演 彼得·杰克逊 Peter Jackson
◎编  剧 弗兰·威尔士 Fran Walsh / 菲利帕·鲍恩斯 Philippa Boyens / 彼得·杰克逊 Peter Jackson / 吉尔莫·德尔·托罗 Guillermo del Toro / J·R·R·托尔金 J.R.R. Tolkien
◎主  演 伊恩·麦克莱恩 Ian McKellen
       马丁·弗瑞曼 Martin Freeman
       理查德·阿米蒂奇 Richard Armitage
       肯·斯托特 Ken Stott
       格拉汉姆·麦克泰维什 Graham McTavish
       詹姆斯·内斯比特 James Nesbitt
       迪恩·奥戈曼 Dean O'Gorman
       艾丹·特纳 Aidan Turner
       雨果·维文 Hugo Weaving
       凯特·布兰切特 Cate Blanchett
       安迪·瑟金斯 Andy Serkis
       西尔维斯特·迈可伊 Sylvester McCoy
       克里斯托弗·李 Christopher Lee
       伊利亚·伍德 Elijah Wood
       伊安·霍姆 Ian Holm
       李·佩斯 Lee Pace
       迈克尔·米兹拉希 Michael Mizrahi
       布雷特·麦肯齐 Bret McKenzie
       鲁比·阿什伯恩·瑟金斯 Ruby Ashbourne Serkis
        海登·J·维尔 Hayden J. Weal
       约翰·劳斯 John Rawls
       巴瑞·哈姆弗莱斯 Barry Humphries
       马努·贝内特 Manu Bennett
       本尼迪克特·康伯巴奇 Benedict Cumberbatch
       姜广涛 Guangtao Jiang
       泰瑞·诺塔里 Terry Notary
       陆建艺 Jianyi Lu
       亚当·布朗 Adam Brown
       布耐恩·布莱塞得 Brian Blessed
       柯南·史蒂文斯 Conan Stevens
       马克·哈德洛 Mark Hadlow
       杰德·布罗菲 Jed Brophy
       约翰·凯伦 John Callen
       斯蒂芬·亨特 Stephen Hunter
       彼得·汉布尔顿 Peter Hambleton
       威廉·基尔舍 William Kircher
◎标  签 魔幻 | 魔戒 | 美国 | 奇异 | 史诗 | 冒险 | 指环王 | 典范
◎简  介


  中土最初一座矮人王国埃尔波尔,巍峨绚丽,庄重宏伟。老国王索尔积聚大量财富,却引来恶龙史茅革的觊觎和苛虐,终极致使这座城池沦陷。很多年后,灰袍巫师甘道夫(伊恩·麦凯伦 Ian McKellen 饰)找到弗罗多的舅舅——霍比特人比尔博·巴金斯(马丁·弗里曼 Martin John C. Freeman 饰),约请他加入由13名矮人组成的远征队伍。本来史茅革已多年不见声息,背负家国冤仇的矮人王子索林(理查德·阿米蒂奇 Richard Armitage 饰)希望借此机遇收复故乡。经过一番斟酌,巴金斯决议加入。令他想不到的是,远征旅途多难多难,与索林结下深仇大恨的苍白半兽人及其爪牙阴魂不散,更有食人鬼和石人制造的无数艰险。而在旅途中,巴金斯也意外获得了往后影响全部中土的重要宝贝……
  
  本片按照J.R.R·托尔金的同名原著改编。
◎获奖情况
  第85届奥斯卡金像奖 ?(2013)
  最好视觉结果(提名) 大卫·克莱顿?/?埃里克·赛恩登?/?R·克里斯托弗·怀特?/?乔·莱特瑞
  最好艺术指导(提名) 西蒙·布赖特?/?丹·汉纳?/?拉·文森特
  最好化装与发型设想(提名) 彼得·金?/?塔米·莱恩?/?里克·芬勒特
  
  第41届动画安妮奖 ?(2014)
  最好真人电影动画脚色
  
  第22届MTV电影奖 ?(2013)
  MTV电影奖最好惊骇戏表演(提名) 马丁·弗瑞曼
  MTV电影奖最好豪杰形象 马丁·弗瑞曼
  
  第18届美国批评家挑选电影奖 ?(2013)
  最好美术指导(提名) 西蒙·布赖特?/?丹·汉纳?/?拉·文森特
  最好打扮设想(提名) 鲍勃·巴克?/?安·马斯克里?/?理查德·泰勒
  最好发型化装(提名)
  最好视觉结果(提名)
  
  第11届华盛顿影评人协会奖 ?(2012)
  最好配乐(提名) 霍华德·肖
  
  第12届凤凰城影评人协会奖 ?(2012)
  最好打扮设想(提名) 鲍勃·巴克?/?安·马斯克里?/?理查德·泰勒
  最好艺术指导(提名) 丹·汉纳
  最好视觉结果(提名)
  
  第3届豆瓣电影鑫像奖 ?(2013)
  鑫豆单元最好视觉结果(提名)
  鑫豆单元最好歌曲(提名)
  鑫豆单元最好落选影片(提名)
  1. Video
  2. ID                                       : 1
  3. ID in the original source medium         : 4113 (0x1011)
  4. Format                                   : HEVC
  5. Format/Info                              : High Efficiency Video Coding
  6. Format profile                           : Main [email protected]@High
  7. HDR format                               : SMPTE ST 2086, HDR10 compatible
  8. Codec ID                                 : V_MPEGH/ISO/HEVC
  9. Duration                                 : 3 h 2 min
  10. Bit rate                                 : 49.5 Mb/s
  11. Width                                    : 3 840 pixels
  12. Height                                   : 2 160 pixels
  13. Display aspect ratio                     : 16:9
  14. Frame rate mode                          : Constant
  15. Frame rate                               : 23.976 (24000/1001/189150) FPS
  16. Color space                              : YUV
  17. Chroma subsampling                       : 4:2:0 (Type 2)
  18. Bit depth                                : 10 bits
  19. Bits/(Pixel*Frame)                       : 0.249
  20. Stream size                              : 63.0 GiB (83%)
  21. Title                                    : The.Hobbit.An.Unexpected.Journey.2012.EXTENDED.2160p.BluRay.REMUX.HEVC.DTS-HD.MA.TrueHD.7.1.Atmos-FGT
  22. Language                                 : English
  23. Default                                  : No
  24. Forced                                   : No
  25. Color range                              : Limited
  26. Color primaries                          : BT.2020
  27. Transfer characteristics                 : PQ
  28. Matrix coefficients                      : BT.2020 non-constant
  29. Mastering display color primaries        : Display P3
  30. Mastering display luminance              : min: 0.0050 cd/m2, max: 4000 cd/m2
  31. Maximum Content Light Level              : 801 cd/m2
  32. Maximum Frame-Average Light Level        : 188 cd/m2
  33. Original source medium                   : Blu-ray
  34. Audio #1
  35. ID                                       : 2
  36. ID in the original source medium         : 4352 (0x1100)
  37. Format                                   : MLP FBA 16-ch
  38. Format/Info                              : Meridian Lossless Packing FBA with 16-channel presentation
  39. Commercial name                          : Dolby TrueHD with Dolby Atmos
  40. Codec ID                                 : A_TRUEHD
  41. Duration                                 : 3 h 2 min
  42. Bit rate mode                            : Variable
  43. Bit rate                                 : 3 403 kb/s
  44. Maximum bit rate                         : 5 616 kb/s
  45. Channel(s)                               : 8 channels
  46. Channel layout                           : L R C LFE Ls Rs Lb Rb
  47. Sampling rate                            : 48.0 kHz
  48. Frame rate                               : 1 200.000 FPS (40 SPF)
  49. Compression mode                         : Lossless
  50. Stream size                              : 4.34 GiB (6%)
  51. Title                                    : The.Hobbit.An.Unexpected.Journey.2012.EXTENDED.2160p.BluRay.REMUX.HEVC.DTS-HD.MA.TrueHD.7.1.Atmos-FGT
  52. Language                                 : English
  53. Default                                  : Yes
  54. Forced                                   : No
  55. Original source medium                   : Blu-ray
  56. Number of dynamic objects                : 11
  57. Bed channel count                        : 1 channel
  58. Bed channel configuration                : LFE
  59. Audio #2
  60. ID                                       : 3
  61. Format                                   : DTS XLL
  62. Format/Info                              : Digital Theater Systems
  63. Commercial name                          : DTS-HD Master Audio
  64. Codec ID                                 : A_DTS
  65. Duration                                 : 3 h 2 min
  66. Bit rate mode                            : Variable
  67. Bit rate                                 : 4 024 kb/s
  68. Channel(s)                               : 8 channels
  69. Channel layout                           : C L R LFE Lb Rb Lss Rss
  70. Sampling rate                            : 48.0 kHz
  71. Frame rate                               : 93.750 FPS (512 SPF)
  72. Bit depth                                : 24 bits
  73. Compression mode                         : Lossless
  74. Stream size                              : 5.13 GiB (7%)
  75. Title                                    : The.Hobbit.An.Unexpected.Journey.2012.EXTENDED.2160p.BluRay.REMUX.HEVC.DTS-HD.MA.TrueHD.7.1.Atmos-FGT
  76. Language                                 : English
  77. Default                                  : No
  78. Forced                                   : No
  79. Audio #3
  80. ID                                       : 4
  81. ID in the original source medium         : 4352 (0x1100)
  82. Format                                   : AC-3
  83. Format/Info                              : Audio Coding 3
  84. Commercial name                          : Dolby Digital
  85. Codec ID                                 : A_AC3
  86. Duration                                 : 3 h 2 min
  87. Bit rate mode                            : Constant
  88. Bit rate                                 : 448 kb/s
  89. Channel(s)                               : 6 channels
  90. Channel layout                           : L R C LFE Ls Rs
  91. Sampling rate                            : 48.0 kHz
  92. Frame rate                               : 31.250 FPS (1536 SPF)
  93. Compression mode                         : Lossy
  94. Stream size                              : 585 MiB (1%)
  95. Title                                    : The.Hobbit.An.Unexpected.Journey.2012.EXTENDED.2160p.BluRay.REMUX.HEVC.DTS-HD.MA.TrueHD.7.1.Atmos-FGT
  96. Language                                 : English
  97. Service kind                             : Complete Main
  98. Default                                  : No
  99. Forced                                   : No
  100. Original source medium                   : Blu-ray
  101. Audio #4
  102. ID                                       : 5
  103. ID in the original source medium         : 4354 (0x1102)
  104. Format                                   : AC-3
  105. Format/Info                              : Audio Coding 3
  106. Commercial name                          : Dolby Digital
  107. Codec ID                                 : A_AC3
  108. Duration                                 : 3 h 2 min
  109. Bit rate mode                            : Constant
  110. Bit rate                                 : 448 kb/s
  111. Channel(s)                               : 6 channels
  112. Channel layout                           : L R C LFE Ls Rs
  113. Sampling rate                            : 48.0 kHz
  114. Frame rate                               : 31.250 FPS (1536 SPF)
  115. Compression mode                         : Lossy
  116. Stream size                              : 585 MiB (1%)
  117. Title                                    : The.Hobbit.An.Unexpected.Journey.2012.EXTENDED.2160p.BluRay.REMUX.HEVC.DTS-HD.MA.TrueHD.7.1.Atmos-FGT
  118. Language                                 : French
  119. Service kind                             : Complete Main
  120. Default                                  : No
  121. Forced                                   : No
  122. Original source medium                   : Blu-ray
  123. Audio #5
  124. ID                                       : 6
  125. ID in the original source medium         : 4355 (0x1103)
  126. Format                                   : AC-3
  127. Format/Info                              : Audio Coding 3
  128. Commercial name                          : Dolby Digital
  129. Codec ID                                 : A_AC3
  130. Duration                                 : 3 h 2 min
  131. Bit rate mode                            : Constant
  132. Bit rate                                 : 448 kb/s
  133. Channel(s)                               : 6 channels
  134. Channel layout                           : L R C LFE Ls Rs
  135. Sampling rate                            : 48.0 kHz
  136. Frame rate                               : 31.250 FPS (1536 SPF)
  137. Compression mode                         : Lossy
  138. Stream size                              : 585 MiB (1%)
  139. Title                                    : The.Hobbit.An.Unexpected.Journey.2012.EXTENDED.2160p.BluRay.REMUX.HEVC.DTS-HD.MA.TrueHD.7.1.Atmos-FGT
  140. Language                                 : Italian
  141. Service kind                             : Complete Main
  142. Default                                  : No
  143. Forced                                   : No
  144. Original source medium                   : Blu-ray
  145. Audio #6
  146. ID                                       : 7
  147. ID in the original source medium         : 4356 (0x1104)
  148. Format                                   : AC-3
  149. Format/Info                              : Audio Coding 3
  150. Commercial name                          : Dolby Digital
  151. Codec ID                                 : A_AC3
  152. Duration                                 : 3 h 2 min
  153. Bit rate mode                            : Constant
  154. Bit rate                                 : 448 kb/s
  155. Channel(s)                               : 6 channels
  156. Channel layout                           : L R C LFE Ls Rs
  157. Sampling rate                            : 48.0 kHz
  158. Frame rate                               : 31.250 FPS (1536 SPF)
  159. Compression mode                         : Lossy
  160. Stream size                              : 585 MiB (1%)
  161. Title                                    : The.Hobbit.An.Unexpected.Journey.2012.EXTENDED.2160p.BluRay.REMUX.HEVC.DTS-HD.MA.TrueHD.7.1.Atmos-FGT
  162. Language                                 : Spanish
  163. Service kind                             : Complete Main
  164. Default                                  : No
  165. Forced                                   : No
  166. Original source medium                   : Blu-ray
  167. Audio #7
  168. ID                                       : 8
  169. ID in the original source medium         : 4357 (0x1105)
  170. Format                                   : AC-3
  171. Format/Info                              : Audio Coding 3
  172. Commercial name                          : Dolby Digital
  173. Codec ID                                 : A_AC3
  174. Duration                                 : 3 h 2 min
  175. Bit rate mode                            : Constant
  176. Bit rate                                 : 448 kb/s
  177. Channel(s)                               : 6 channels
  178. Channel layout                           : L R C LFE Ls Rs
  179. Sampling rate                            : 48.0 kHz
  180. Frame rate                               : 31.250 FPS (1536 SPF)
  181. Compression mode                         : Lossy
  182. Stream size                              : 585 MiB (1%)
  183. Title                                    : The.Hobbit.An.Unexpected.Journey.2012.EXTENDED.2160p.BluRay.REMUX.HEVC.DTS-HD.MA.TrueHD.7.1.Atmos-FGT
  184. Language                                 : Czech
  185. Service kind                             : Complete Main
  186. Default                                  : No
  187. Forced                                   : No
  188. Original source medium                   : Blu-ray
  189. Text #1
  190. ID                                       : 9
  191. Format                                   : UTF-8
  192. Codec ID                                 : S_TEXT/UTF8
  193. Codec ID/Info                            : UTF-8 Plain Text
  194. Duration                                 : 2 h 55 min
  195. Bit rate                                 : 44 b/s
  196. Count of elements                        : 2180
  197. Stream size                              : 57.5 KiB (0%)
  198. Title                                    : English-SRT
  199. Language                                 : English
  200. Default                                  : Yes
  201. Forced                                   : No
  202. Text #2
  203. ID                                       : 10
  204. ID in the original source medium         : 4769 (0x12A1)
  205. Format                                   : PGS
  206. Muxing mode                              : zlib
  207. Codec ID                                 : S_HDMV/PGS
  208. Codec ID/Info                            : Picture based subtitle format used on BDs/HD-DVDs
  209. Duration                                 : 2 h 55 min
  210. Bit rate                                 : 29.5 kb/s
  211. Count of elements                        : 4950
  212. Stream size                              : 37.2 MiB (0%)
  213. Title                                    : English-PGS
  214. Language                                 : English
  215. Default                                  : No
  216. Forced                                   : No
  217. Original source medium                   : Blu-ray
  218. Text #3
  219. ID                                       : 11
  220. ID in the original source medium         : 4770 (0x12A2)
  221. Format                                   : PGS
  222. Muxing mode                              : zlib
  223. Codec ID                                 : S_HDMV/PGS
  224. Codec ID/Info                            : Picture based subtitle format used on BDs/HD-DVDs
  225. Duration                                 : 3 h 1 min
  226. Bit rate                                 : 22.0 kb/s
  227. Count of elements                        : 4012
  228. Stream size                              : 28.5 MiB (0%)
  229. Title                                    : French-PGS
  230. Language                                 : French
  231. Default                                  : No
  232. Forced                                   : No
  233. Original source medium                   : Blu-ray
  234. Text #4
  235. ID                                       : 12
  236. ID in the original source medium         : 4771 (0x12A3)
  237. Format                                   : PGS
  238. Muxing mode                              : zlib
  239. Codec ID                                 : S_HDMV/PGS
  240. Codec ID/Info                            : Picture based subtitle format used on BDs/HD-DVDs
  241. Duration                                 : 3 h 1 min
  242. Bit rate                                 : 27.9 kb/s
  243. Count of elements                        : 4920
  244. Stream size                              : 36.3 MiB (0%)
  245. Title                                    : Italian-PGS
  246. Language                                 : Italian
  247. Default                                  : No
  248. Forced                                   : No
  249. Original source medium                   : Blu-ray
  250. Text #5
  251. ID                                       : 13
  252. ID in the original source medium         : 4772 (0x12A4)
  253. Format                                   : PGS
  254. Muxing mode                              : zlib
  255. Codec ID                                 : S_HDMV/PGS
  256. Codec ID/Info                            : Picture based subtitle format used on BDs/HD-DVDs
  257. Duration                                 : 3 h 1 min
  258. Bit rate                                 : 24.4 kb/s
  259. Count of elements                        : 4196
  260. Stream size                              : 31.7 MiB (0%)
  261. Title                                    : Spanish-PGS
  262. Language                                 : Spanish
  263. Default                                  : No
  264. Forced                                   : No
  265. Original source medium                   : Blu-ray
  266. Text #6
  267. ID                                       : 14
  268. ID in the original source medium         : 4773 (0x12A5)
  269. Format                                   : PGS
  270. Muxing mode                              : zlib
  271. Codec ID                                 : S_HDMV/PGS
  272. Codec ID/Info                            : Picture based subtitle format used on BDs/HD-DVDs
  273. Duration                                 : 2 h 50 min
  274. Bit rate                                 : 24.1 kb/s
  275. Count of elements                        : 4164
  276. Stream size                              : 29.3 MiB (0%)
  277. Title                                    : Dutch-PGS
  278. Language                                 : Dutch
  279. Default                                  : No
  280. Forced                                   : No
  281. Original source medium                   : Blu-ray
  282. Text #7
  283. ID                                       : 15
  284. ID in the original source medium         : 4774 (0x12A6)
  285. Format                                   : PGS
  286. Muxing mode                              : zlib
  287. Codec ID                                 : S_HDMV/PGS
  288. Codec ID/Info                            : Picture based subtitle format used on BDs/HD-DVDs
  289. Duration                                 : 3 h 0 min
  290. Bit rate                                 : 21.0 kb/s
  291. Count of elements                        : 4350
  292. Stream size                              : 27.1 MiB (0%)
  293. Title                                    : Chinese-PGS
  294. Language                                 : Chinese
  295. Default                                  : No
  296. Forced                                   : No
  297. Original source medium                   : Blu-ray
  298. Text #8
  299. ID                                       : 16
  300. ID in the original source medium         : 4775 (0x12A7)
  301. Format                                   : PGS
  302. Muxing mode                              : zlib
  303. Codec ID                                 : S_HDMV/PGS
  304. Codec ID/Info                            : Picture based subtitle format used on BDs/HD-DVDs
  305. Duration                                 : 3 h 0 min
  306. Bit rate                                 : 18.3 kb/s
  307. Count of elements                        : 4366
  308. Stream size                              : 23.7 MiB (0%)
  309. Title                                    : Korean-PGS
  310. Language                                 : Korean
  311. Default                                  : No
  312. Forced                                   : No
  313. Original source medium                   : Blu-ray
  314. Text #9
  315. ID                                       : 17
  316. ID in the original source medium         : 4776 (0x12A8)
  317. Format                                   : PGS
  318. Muxing mode                              : zlib
  319. Codec ID                                 : S_HDMV/PGS
  320. Codec ID/Info                            : Picture based subtitle format used on BDs/HD-DVDs
  321. Duration                                 : 3 h 1 min
  322. Bit rate                                 : 25.9 kb/s
  323. Count of elements                        : 4406
  324. Stream size                              : 33.6 MiB (0%)
  325. Title                                    : Spanish-PGS
  326. Language                                 : Spanish
  327. Default                                  : No
  328. Forced                                   : No
  329. Original source medium                   : Blu-ray
  330. Text #10
  331. ID                                       : 18
  332. ID in the original source medium         : 4777 (0x12A9)
  333. Format                                   : PGS
  334. Muxing mode                              : zlib
  335. Codec ID                                 : S_HDMV/PGS
  336. Codec ID/Info                            : Picture based subtitle format used on BDs/HD-DVDs
  337. Duration                                 : 3 h 0 min
  338. Bit rate                                 : 23.4 kb/s
  339. Count of elements                        : 4378
  340. Stream size                              : 30.3 MiB (0%)
  341. Title                                    : Czech-PGS
  342. Language                                 : Czech
  343. Default                                  : No
  344. Forced                                   : No
  345. Original source medium                   : Blu-ray
  346. Text #11
  347. ID                                       : 19
  348. ID in the original source medium         : 4778 (0x12AA)
  349. Format                                   : PGS
  350. Muxing mode                              : zlib
  351. Codec ID                                 : S_HDMV/PGS
  352. Codec ID/Info                            : Picture based subtitle format used on BDs/HD-DVDs
  353. Duration                                 : 3 h 1 min
  354. Bit rate                                 : 21.4 kb/s
  355. Count of elements                        : 4116
  356. Stream size                              : 27.8 MiB (0%)
  357. Title                                    : Danish-PGS
  358. Language                                 : Danish
  359. Default                                  : No
  360. Forced                                   : No
  361. Original source medium                   : Blu-ray
  362. Text #12
  363. ID                                       : 20
  364. ID in the original source medium         : 4779 (0x12AB)
  365. Format                                   : PGS
  366. Muxing mode                              : zlib
  367. Codec ID                                 : S_HDMV/PGS
  368. Codec ID/Info                            : Picture based subtitle format used on BDs/HD-DVDs
  369. Duration                                 : 3 h 1 min
  370. Bit rate                                 : 21.9 kb/s
  371. Count of elements                        : 4156
  372. Stream size                              : 28.4 MiB (0%)
  373. Title                                    : Finnish-PGS
  374. Language                                 : Finnish
  375. Default                                  : No
  376. Forced                                   : No
  377. Original source medium                   : Blu-ray
  378. Text #13
  379. ID                                       : 21
  380. ID in the original source medium         : 4780 (0x12AC)
  381. Format                                   : PGS
  382. Muxing mode                              : zlib
  383. Codec ID                                 : S_HDMV/PGS
  384. Codec ID/Info                            : Picture based subtitle format used on BDs/HD-DVDs
  385. Duration                                 : 3 h 1 min
  386. Bit rate                                 : 23.3 kb/s
  387. Count of elements                        : 4292
  388. Stream size                              : 30.3 MiB (0%)
  389. Title                                    : Norwegian-PGS
  390. Language                                 : Norwegian
  391. Default                                  : No
  392. Forced                                   : No
  393. Original source medium                   : Blu-ray
  394. Text #14
  395. ID                                       : 22
  396. ID in the original source medium         : 4781 (0x12AD)
  397. Format                                   : PGS
  398. Muxing mode                              : zlib
  399. Codec ID                                 : S_HDMV/PGS
  400. Codec ID/Info                            : Picture based subtitle format used on BDs/HD-DVDs
  401. Duration                                 : 3 h 1 min
  402. Bit rate                                 : 21.7 kb/s
  403. Count of elements                        : 4138
  404. Stream size                              : 28.1 MiB (0%)
  405. Title                                    : Polish-PGS
  406. Language                                 : Polish
  407. Default                                  : No
  408. Forced                                   : No
  409. Original source medium                   : Blu-ray
  410. Text #15
  411. ID                                       : 23
  412. ID in the original source medium         : 4782 (0x12AE)
  413. Format                                   : PGS
  414. Muxing mode                              : zlib
  415. Codec ID                                 : S_HDMV/PGS
  416. Codec ID/Info                            : Picture based subtitle format used on BDs/HD-DVDs
  417. Duration                                 : 3 h 1 min
  418. Bit rate                                 : 23.8 kb/s
  419. Count of elements                        : 4174
  420. Stream size                              : 30.9 MiB (0%)
  421. Title                                    : Swedish-PGS
  422. Language                                 : Swedish
  423. Default                                  : No
  424. Forced                                   : No
  425. Original source medium                   : Blu-ray
  426. Text #16
  427. ID                                       : 24
  428. ID in the original source medium         : 4783 (0x12AF)
  429. Format                                   : PGS
  430. Muxing mode                              : zlib
  431. Codec ID                                 : S_HDMV/PGS
  432. Codec ID/Info                            : Picture based subtitle format used on BDs/HD-DVDs
  433. Duration                                 : 3 h 1 min
  434. Bit rate                                 : 23.5 kb/s
  435. Count of elements                        : 4398
  436. Stream size                              : 30.6 MiB (0%)
  437. Title                                    : Thai-PGS
  438. Language                                 : Thai
  439. Default                                  : No
  440. Forced                                   : No
  441. Original source medium                   : Blu-ray
  442. Text #17
  443. ID                                       : 25
  444. ID in the original source medium         : 4785 (0x12B1)
  445. Format                                   : PGS
  446. Muxing mode                              : zlib
  447. Codec ID                                 : S_HDMV/PGS
  448. Codec ID/Info                            : Picture based subtitle format used on BDs/HD-DVDs
  449. Duration                                 : 2 h 31 min
  450. Bit rate                                 : 650 b/s
  451. Count of elements                        : 100
  452. Stream size                              : 721 KiB (0%)
  453. Title                                    : French-FORCED-PGS
  454. Language                                 : French
  455. Default                                  : No
  456. Forced                                   : No
  457. Original source medium                   : Blu-ray
  458. Text #18
  459. ID                                       : 26
  460. ID in the original source medium         : 4786 (0x12B2)
  461. Format                                   : PGS
  462. Muxing mode                              : zlib
  463. Codec ID                                 : S_HDMV/PGS
  464. Codec ID/Info                            : Picture based subtitle format used on BDs/HD-DVDs
  465. Duration                                 : 2 h 59 min
  466. Bit rate                                 : 608 b/s
  467. Count of elements                        : 106
  468. Stream size                              : 801 KiB (0%)
  469. Title                                    : Itlaian-FORCED-PGS
  470. Language                                 : Italian
  471. Default                                  : No
  472. Forced                                   : No
  473. Original source medium                   : Blu-ray
  474. Text #19
  475. ID                                       : 27
  476. ID in the original source medium         : 4787 (0x12B3)
  477. Format                                   : PGS
  478. Muxing mode                              : zlib
  479. Codec ID                                 : S_HDMV/PGS
  480. Codec ID/Info                            : Picture based subtitle format used on BDs/HD-DVDs
  481. Duration                                 : 2 h 59 min
  482. Bit rate                                 : 600 b/s
  483. Count of elements                        : 102
  484. Stream size                              : 790 KiB (0%)
  485. Title                                    : Spanish-FORCED-PGS
  486. Language                                 : Spanish
  487. Default                                  : No
  488. Forced                                   : No
  489. Original source medium                   : Blu-ray
  490. Text #20
  491. ID                                       : 28
  492. ID in the original source medium         : 4788 (0x12B4)
  493. Format                                   : PGS
  494. Muxing mode                              : zlib
  495. Codec ID                                 : S_HDMV/PGS
  496. Codec ID/Info                            : Picture based subtitle format used on BDs/HD-DVDs
  497. Duration                                 : 2 h 59 min
  498. Bit rate                                 : 527 b/s
  499. Count of elements                        : 104
  500. Stream size                              : 694 KiB (0%)
  501. Title                                    : Czech-FORCED-PGS
  502. Language                                 : Czech
  503. Default                                  : No
  504. Forced                                   : No
  505. Original source medium                   : Blu-ray
  506. Menu
  507. 00:00:00.000                             : en:Chapter 01
  508. 00:10:11.360                             : en:Chapter 02
  509. 00:14:08.347                             : en:Chapter 03
  510. 00:17:26.920                             : en:Chapter 04
  511. 00:18:44.289                             : en:Chapter 05
  512. 00:23:15.936                             : en:Chapter 06
  513. 00:27:59.135                             : en:Chapter 07
  514. 00:36:04.453                             : en:Chapter 08
  515. 00:41:16.932                             : en:Chapter 09
  516. 00:46:30.496                             : en:Chapter 10
  517. 00:53:03.847                             : en:Chapter 11
  518. 00:58:07.233                             : en:Chapter 12
  519. 00:59:54.966                             : en:Chapter 13
  520. 01:10:42.071                             : en:Chapter 14
  521. 01:15:01.497                             : en:Chapter 15
  522. 01:18:52.102                             : en:Chapter 16
  523. 01:24:56.257                             : en:Chapter 17
  524. 01:30:34.095                             : en:Chapter 18
  525. 01:34:10.269                             : en:Chapter 19
  526. 01:37:24.129                             : en:Chapter 20
  527. 01:39:03.145                             : en:Chapter 21
  528. 01:41:40.219                             : en:Chapter 22
  529. 01:50:22.157                             : en:Chapter 23
  530. 01:52:59.439                             : en:Chapter 24
  531. 01:59:06.013                             : en:Chapter 25
  532. 02:03:57.138                             : en:Chapter 26
  533. 02:09:51.241                             : en:Chapter 27
  534. 02:23:21.092                             : en:Chapter 28
  535. 02:25:18.543                             : en:Chapter 29
  536. 02:26:30.782                             : en:Chapter 30
  537. 02:30:52.585                             : en:Chapter 31
  538. 02:33:00.212                             : en:Chapter 32
  539. 02:35:52.259                             : en:Chapter 33
  540. 02:46:50.500                             : en:Chapter 34
  541. 02:52:20.705                             : en:Chapter 35
复制代码



                                       
                                       

                                       
                                       
                                       




霍比特人1:意外之旅 The.Hobbit.An.Unexpected.Journey.2012.EXTENDED.2160p.BluRay.REMUX.HEVC.DTS-HD.MA.TrueHD.7.1.Atmos-FGT 75.67GB

The.Hobbit.An.Unexpected.Journey.2012.EXTENDED.2160p.BluRay.REMUX.HEVC.DTS-HD.MA.zip

190 KB, 下载次数: 24, 下载积分: 蓝光币 -2

回复

使用道具 举报

懒得打字嘛,点击右侧快捷回复 【右侧内容,后台自定义】
您需要登录后才可以回帖 登录 | 立即加入

本版积分规则

Archiver|小黑屋| 蓝光电影网 |网站地图

Copyright © 2021 Comsenz Inc. Powered by 蓝光电影网

蓝光电影网

本站内容由用户自主分享和转载自互联网,转载目的在于传递更多信息,并不代表本网赞同其观点和对其真实性负责。

如有侵权、违反国家法律政策行为,请联系我们,我们会第一时间及时清除和处理!

举报反馈邮箱:[email protected]

快速回复 返回顶部 返回列表