找回密码

蓝光电影网

查看: 100|回复: 0

[UHD.HEVC] 美国之旅/来去美国 Coming.To.America.1988.2160p.BluRay.REMUX.HEVC.DTS-HD.MA.5.1-FGT 49.66GB

[复制链接]
蓝光币
1084
发表于 2020-12-2 23:07:21 | 显示全部楼层 |阅读模式


◎译  名 美国之旅/来去美国/王子寻妃记/纽约之恋
◎片  名 Coming to America
◎年  代 1988
◎产  地 美国
◎类  别 剧情 / 笑剧 / 恋爱
◎语  言 英语
◎上映日期 1988-06-29
◎IMDb评分  7/10 from 162895 users
◎IMDb链接  https://www.imdb.com/title/tt0094898/
◎豆瓣评分 7.1/10 from 1505 users
◎豆瓣链接 https://movie.douban.com/subject/1299621/
◎片  长 116 分钟
◎导  演 约翰·兰迪斯 John Landis
◎编  剧 贝瑞·布劳斯坦 Barry W. Blaustein / 大卫·谢菲尔德 David Sheffield / 艾迪·墨菲 Eddie Murphy
◎主  演 艾迪·墨菲 Eddie Murphy
       阿瑟尼奥·豪尔 Arsenio Hall
       詹姆斯·厄尔·琼斯 James Earl Jones
       约翰·阿莫斯 John Amos
       玛奇·辛克莱 Madge Sinclair
       莎丽·海德利 Shari Headley
       埃里克·拉萨尔 Eriq La Salle
       弗兰基·费森 Frankie Faison
       瓦妮莎·贝尔·卡洛威 Vanessa Bell Calloway
       路易·安德森 Louie Anderson
       杰克·斯坦菲尔德 Jake Steinfeld
       卡尔文·洛克哈特 Calvin Lockhart
       艾莉森·迪安 Allison Dean
       保罗·贝茨 Paul Bates
       Felicia Taylor
       唐·阿米契 Don Ameche
       Scott Shepherd
       史蒂夫·怀特 Steve White
       David Sosna
       鲁本·桑地亚哥-哈德森 Ruben Santiago-Hudson
       维多利亚·迪拉德 Victoria Dillard
       吉姆·艾布拉姆斯 Jim Abrahams
       嘉丝莉·毕薇斯 Garcelle Beauvais
       拉尔夫·贝拉米 Ralph Bellamy
       小库珀·古丁 Cuba Gooding Jr.
       塞缪尔·杰克逊 Samuel L. Jackson
       Aurorah Allain
       Midori
       Montrose Hagins
       海伦汉芙特 Helen Hanft
       Billi Gordon
       Birdie M. Hale
       Mary Bond Davis
       沃迪·科蒂斯·霍尔 Vondie Curtis-Hall
       Arthur Adams
◎标  签 笑剧 | 美国 | 美国电影 | 恋爱 | 艾迪墨菲 | 1988 | EddieMurphy | 电影
◎简  介


  阿基姆(艾迪·墨菲 Eddie Murphy 饰)是扎门达国的王子,他和随从桑米(阿瑟尼奥·豪尔 Arsenio Hall 饰)来到美国,要在这里停止为期40天的微服拜候。对于阿基姆来说,此行还有别的一个目标,他对父亲甲斐(詹姆斯·厄尔·琼斯 James Earl Jones 饰)为自己放置的亲事很是不满,所以阿基姆决议,一定要在美国找到自己的真命天女。
  
  荣幸的是,这样的女人很快就出现了,她的名字叫做莎莉(沙里·海德利 Shari Headley 饰)。为了接近莎莉,阿基姆进入了莎莉父亲开的面包店成为了一位打工仔。莎莉有一个本性非常粗鲁的男友,相比之下,她加倍喜好文质彬彬的阿基姆,正当两人的关系逐步步入正轨之时,甲斐居然亲临美国,阿基姆苦心隐瞒的身份眼看就要被揭露。
◎获奖情况
  第61届奥斯卡金像奖 ?(1989)
  最好打扮设想(提名) 戴博拉·纳杜尔曼
  最好化装(提名) 里克·贝克
  1. Video
  2. ID                                       : 1
  3. ID in the original source medium         : 4113 (0x1011)
  4. Format                                   : HEVC
  5. Format/Info                              : High Efficiency Video Coding
  6. Format profile                           : Main [email protected]@High
  7. HDR format                               : SMPTE ST 2086, HDR10 compatible
  8. Codec ID                                 : V_MPEGH/ISO/HEVC
  9. Duration                                 : 1 h 56 min
  10. Bit rate                                 : 56.0 Mb/s
  11. Width                                    : 3 840 pixels
  12. Height                                   : 2 160 pixels
  13. Display aspect ratio                     : 16:9
  14. Frame rate mode                          : Constant
  15. Frame rate                               : 23.976 (24000/1001/189150) FPS
  16. Color space                              : YUV
  17. Chroma subsampling                       : 4:2:0 (Type 2)
  18. Bit depth                                : 10 bits
  19. Bits/(Pixel*Frame)                       : 0.282
  20. Stream size                              : 45.7 GiB (92%)
  21. Title                                    : Coming.To.America.1988.2160p.BluRay.REMUX.HEVC.DTS-HD.MA.5.1-FGT
  22. Language                                 : English
  23. Default                                  : No
  24. Forced                                   : No
  25. Color range                              : Limited
  26. Color primaries                          : BT.2020
  27. Transfer characteristics                 : PQ
  28. Matrix coefficients                      : BT.2020 non-constant
  29. Mastering display color primaries        : Display P3
  30. Mastering display luminance              : min: 0.0050 cd/m2, max: 4000 cd/m2
  31. Maximum Content Light Level              : 1000 cd/m2
  32. Maximum Frame-Average Light Level        : 228 cd/m2
  33. Original source medium                   : Blu-ray
  34. Audio #1
  35. ID                                       : 2
  36. ID in the original source medium         : 4352 (0x1100)
  37. Format                                   : DTS XLL
  38. Format/Info                              : Digital Theater Systems
  39. Commercial name                          : DTS-HD Master Audio
  40. Codec ID                                 : A_DTS
  41. Duration                                 : 1 h 56 min
  42. Bit rate mode                            : Variable
  43. Bit rate                                 : 3 694 kb/s
  44. Channel(s)                               : 6 channels
  45. Channel layout                           : C L R Ls Rs LFE
  46. Sampling rate                            : 48.0 kHz
  47. Frame rate                               : 93.750 FPS (512 SPF)
  48. Bit depth                                : 24 bits
  49. Compression mode                         : Lossless
  50. Stream size                              : 3.01 GiB (6%)
  51. Title                                    : Coming.To.America.1988.2160p.BluRay.REMUX.HEVC.DTS-HD.MA.5.1-FGT
  52. Language                                 : English
  53. Default                                  : Yes
  54. Forced                                   : No
  55. Original source medium                   : Blu-ray
  56. Audio #2
  57. ID                                       : 3
  58. ID in the original source medium         : 4353 (0x1101)
  59. Format                                   : AC-3
  60. Format/Info                              : Audio Coding 3
  61. Commercial name                          : Dolby Digital
  62. Codec ID                                 : A_AC3
  63. Duration                                 : 1 h 56 min
  64. Bit rate mode                            : Constant
  65. Bit rate                                 : 640 kb/s
  66. Channel(s)                               : 6 channels
  67. Channel layout                           : L R C LFE Ls Rs
  68. Sampling rate                            : 48.0 kHz
  69. Frame rate                               : 31.250 FPS (1536 SPF)
  70. Compression mode                         : Lossy
  71. Stream size                              : 535 MiB (1%)
  72. Title                                    : Coming.To.America.1988.2160p.BluRay.REMUX.HEVC.DTS-HD.MA.5.1-FGT
  73. Language                                 : English
  74. Service kind                             : Complete Main
  75. Default                                  : No
  76. Forced                                   : No
  77. Original source medium                   : Blu-ray
  78. Audio #3
  79. ID                                       : 4
  80. ID in the original source medium         : 4354 (0x1102)
  81. Format                                   : AC-3
  82. Format/Info                              : Audio Coding 3
  83. Commercial name                          : Dolby Digital
  84. Codec ID                                 : A_AC3
  85. Duration                                 : 1 h 56 min
  86. Bit rate mode                            : Constant
  87. Bit rate                                 : 224 kb/s
  88. Channel(s)                               : 2 channels
  89. Channel layout                           : L R
  90. Sampling rate                            : 48.0 kHz
  91. Frame rate                               : 31.250 FPS (1536 SPF)
  92. Compression mode                         : Lossy
  93. Stream size                              : 187 MiB (0%)
  94. Title                                    : Coming.To.America.1988.2160p.BluRay.REMUX.HEVC.DTS-HD.MA.5.1-FGT
  95. Language                                 : German
  96. Service kind                             : Complete Main
  97. Default                                  : No
  98. Forced                                   : No
  99. Original source medium                   : Blu-ray
  100. Audio #4
  101. ID                                       : 5
  102. ID in the original source medium         : 4355 (0x1103)
  103. Format                                   : AC-3
  104. Format/Info                              : Audio Coding 3
  105. Commercial name                          : Dolby Digital
  106. Codec ID                                 : A_AC3
  107. Duration                                 : 1 h 56 min
  108. Bit rate mode                            : Constant
  109. Bit rate                                 : 224 kb/s
  110. Channel(s)                               : 2 channels
  111. Channel layout                           : L R
  112. Sampling rate                            : 48.0 kHz
  113. Frame rate                               : 31.250 FPS (1536 SPF)
  114. Compression mode                         : Lossy
  115. Stream size                              : 187 MiB (0%)
  116. Title                                    : Coming.To.America.1988.2160p.BluRay.REMUX.HEVC.DTS-HD.MA.5.1-FGT
  117. Language                                 : French
  118. Service kind                             : Complete Main
  119. Default                                  : No
  120. Forced                                   : No
  121. Original source medium                   : Blu-ray
  122. Text #1
  123. ID                                       : 6
  124. Format                                   : UTF-8
  125. Codec ID                                 : S_TEXT/UTF8
  126. Codec ID/Info                            : UTF-8 Plain Text
  127. Duration                                 : 1 h 48 min
  128. Bit rate                                 : 59 b/s
  129. Count of elements                        : 1365
  130. Stream size                              : 47.3 KiB (0%)
  131. Title                                    : English-SRT
  132. Language                                 : English
  133. Default                                  : Yes
  134. Forced                                   : No
  135. Text #2
  136. ID                                       : 7
  137. ID in the original source medium         : 4768 (0x12A0)
  138. Format                                   : PGS
  139. Muxing mode                              : zlib
  140. Codec ID                                 : S_HDMV/PGS
  141. Codec ID/Info                            : Picture based subtitle format used on BDs/HD-DVDs
  142. Duration                                 : 1 h 48 min
  143. Bit rate                                 : 41.2 kb/s
  144. Count of elements                        : 2744
  145. Stream size                              : 32.1 MiB (0%)
  146. Title                                    : English-PGS
  147. Language                                 : English
  148. Default                                  : No
  149. Forced                                   : No
  150. Original source medium                   : Blu-ray
  151. Text #3
  152. ID                                       : 8
  153. ID in the original source medium         : 4769 (0x12A1)
  154. Format                                   : PGS
  155. Muxing mode                              : zlib
  156. Codec ID                                 : S_HDMV/PGS
  157. Codec ID/Info                            : Picture based subtitle format used on BDs/HD-DVDs
  158. Duration                                 : 1 h 54 min
  159. Bit rate                                 : 45.0 kb/s
  160. Count of elements                        : 3206
  161. Stream size                              : 36.8 MiB (0%)
  162. Title                                    : English-SDH-PGS
  163. Language                                 : English
  164. Default                                  : No
  165. Forced                                   : No
  166. Original source medium                   : Blu-ray
  167. Text #4
  168. ID                                       : 9
  169. ID in the original source medium         : 4770 (0x12A2)
  170. Format                                   : PGS
  171. Muxing mode                              : zlib
  172. Codec ID                                 : S_HDMV/PGS
  173. Codec ID/Info                            : Picture based subtitle format used on BDs/HD-DVDs
  174. Duration                                 : 1 h 53 min
  175. Bit rate                                 : 35.2 kb/s
  176. Count of elements                        : 2596
  177. Stream size                              : 28.5 MiB (0%)
  178. Title                                    : German-PGS
  179. Language                                 : German
  180. Default                                  : No
  181. Forced                                   : No
  182. Original source medium                   : Blu-ray
  183. Text #5
  184. ID                                       : 10
  185. ID in the original source medium         : 4770 (0x12A2)
  186. Format                                   : PGS
  187. Muxing mode                              : zlib
  188. Codec ID                                 : S_HDMV/PGS
  189. Codec ID/Info                            : Picture based subtitle format used on BDs/HD-DVDs
  190. Duration                                 : 1 h 40 min
  191. Bit rate                                 : 1 196 b/s
  192. Count of elements                        : 84
  193. Stream size                              : 881 KiB (0%)
  194. Title                                    : German-FORCED-PGS
  195. Language                                 : German
  196. Default                                  : No
  197. Forced                                   : No
  198. Original source medium                   : Blu-ray
  199. Text #6
  200. ID                                       : 11
  201. ID in the original source medium         : 4771 (0x12A3)
  202. Format                                   : PGS
  203. Muxing mode                              : zlib
  204. Codec ID                                 : S_HDMV/PGS
  205. Codec ID/Info                            : Picture based subtitle format used on BDs/HD-DVDs
  206. Duration                                 : 1 h 55 min
  207. Bit rate                                 : 32.1 kb/s
  208. Count of elements                        : 2220
  209. Stream size                              : 26.6 MiB (0%)
  210. Title                                    : French-PGS
  211. Language                                 : French
  212. Default                                  : No
  213. Forced                                   : No
  214. Original source medium                   : Blu-ray
  215. Text #7
  216. ID                                       : 12
  217. ID in the original source medium         : 4771 (0x12A3)
  218. Format                                   : PGS
  219. Muxing mode                              : zlib
  220. Codec ID                                 : S_HDMV/PGS
  221. Codec ID/Info                            : Picture based subtitle format used on BDs/HD-DVDs
  222. Duration                                 : 1 h 55 min
  223. Bit rate                                 : 1 089 b/s
  224. Count of elements                        : 80
  225. Stream size                              : 924 KiB (0%)
  226. Title                                    : French-FORCED-PGS
  227. Language                                 : French
  228. Default                                  : No
  229. Forced                                   : No
  230. Original source medium                   : Blu-ray
  231. Menu
  232. 00:00:00.000                             : en:Chapter 01
  233. 00:02:40.285                             : en:Chapter 02
  234. 00:06:16.834                             : en:Chapter 03
  235. 00:12:10.396                             : en:Chapter 04
  236. 00:20:25.182                             : en:Chapter 05
  237. 00:22:39.775                             : en:Chapter 06
  238. 00:26:27.043                             : en:Chapter 07
  239. 00:32:04.631                             : en:Chapter 08
  240. 00:34:16.888                             : en:Chapter 09
  241. 00:37:21.072                             : en:Chapter 10
  242. 00:44:08.562                             : en:Chapter 11
  243. 00:50:13.969                             : en:Chapter 12
  244. 00:56:22.587                             : en:Chapter 13
  245. 00:59:31.401                             : en:Chapter 14
  246. 01:02:45.678                             : en:Chapter 15
  247. 01:10:27.598                             : en:Chapter 16
  248. 01:14:37.389                             : en:Chapter 17
  249. 01:22:02.417                             : en:Chapter 18
  250. 01:24:04.998                             : en:Chapter 19
  251. 01:31:41.621                             : en:Chapter 20
  252. 01:35:42.945                             : en:Chapter 21
  253. 01:41:23.744                             : en:Chapter 22
  254. 01:46:29.800                             : en:Chapter 23
  255. 01:50:43.136                             : en:Chapter 24
复制代码



                                       
                                       

                                       
                                       
                                       




回复

使用道具 举报

懒得打字嘛,点击右侧快捷回复 【右侧内容,后台自定义】
您需要登录后才可以回帖 登录 | 立即加入

本版积分规则

Archiver|小黑屋| 蓝光电影网 |网站地图

Copyright © 2021 Comsenz Inc. Powered by 蓝光电影网

蓝光电影网

本站内容由用户自主分享和转载自互联网,转载目的在于传递更多信息,并不代表本网赞同其观点和对其真实性负责。

如有侵权、违反国家法律政策行为,请联系我们,我们会第一时间及时清除和处理!

举报反馈邮箱:[email protected]

快速回复 返回顶部 返回列表