找回密码

蓝光电影网

查看: 94|回复: 0

[2160p] 秘密花园 The.Secret.Garden.2020.2160p.WEB.H265-HUZZAH 10.60GB

[复制链接]
蓝光币
1080
发表于 2020-8-8 09:01:59 | 显示全部楼层 |阅读模式


◎译  名 奥秘花园
◎片  名 The Secret Garden
◎年  代 2020
◎产  地 英国 / 法国
◎类  别 剧情 / 奇异
◎语  言 英语
◎上映日期 2020-08-07(美国)
◎IMDb评分  6.9/10 from 47 users
◎IMDb链接  https://www.imdb.com/title/tt2702920
◎豆瓣评分 0/10 from 0 users
◎豆瓣链接 https://movie.douban.com/subject/30206883/
◎片  长 99分钟
◎导  演 马克·穆登 Marc Munden
◎编  剧 杰克·索恩 Jack Thorne / 弗朗西丝·霍奇森·伯内特 Frances Hodgson Burnett
◎主  演 迪克西·艾格瑞克斯 Dixie Egerickx
       科林·费尔斯 Colin Firth
       朱丽·沃特斯 Julie Walters
       伊登·黑赫斯特 Edan Hayhurst
       梅芙·德莫迪 Maeve Dermody
       杰玛·鲍威尔 Jemma Powell
       保罗·G·雷蒙德 Paul G. Raymond
       阿米尔·威尔森 Amir Wilson
       Isis Davis
       Sonia Goswami
       Paul Dean-Kelly
       Anne Lacey
       Albert Giannitelli
       Jackson Kai
       Chloe Stannage
       Tommy Gene Surridge

◎标  签 奇异 | 英国 | 小说改编 | 童话 | ColinFirth | 2020 | 儿童 | 电影
◎简  介

  
  小女孩玛丽怙恃双亡,她生活在姨夫阴晦奥秘的大屋子里。随后,玛丽闯进了禁闭已久的花园,与迪肯、柯林等人找到了欢畅的源泉。布满魔力的旅程揭开,欢畅、爱心,改变了孩子们的人生。
  1. Video
  2. ID                                       : 1
  3. Format                                   : HEVC
  4. Format/Info                              : High Efficiency Video Coding
  5. Format profile                           : [email protected]@Main
  6. Codec ID                                 : V_MPEGH/ISO/HEVC
  7. Duration                                 : 1 h 39 min
  8. Bit rate                                 : 15.0 Mb/s
  9. Width                                    : 3 840 pixels
  10. Height                                   : 2 160 pixels
  11. Display aspect ratio                     : 16:9
  12. Frame rate mode                          : Constant
  13. Frame rate                               : 23.976 (24000/1001/189150) FPS
  14. Color space                              : YUV
  15. Chroma subsampling                       : 4:2:0
  16. Bit depth                                : 8 bits
  17. Bits/(Pixel*Frame)                       : 0.075
  18. Stream size                              : 10.4 GiB (98%)
  19. Default                                  : Yes
  20. Forced                                   : No
  21. Color range                              : Limited
  22. Color primaries                          : BT.709
  23. Transfer characteristics                 : BT.709
  24. Matrix coefficients                      : BT.709
  25. Audio
  26. ID                                       : 2
  27. Format                                   : E-AC-3
  28. Format/Info                              : Enhanced AC-3
  29. Commercial name                          : Dolby Digital Plus
  30. Codec ID                                 : A_EAC3
  31. Duration                                 : 1 h 39 min
  32. Bit rate mode                            : Constant
  33. Bit rate                                 : 256 kb/s
  34. Channel(s)                               : 6 channels
  35. Channel layout                           : L R C LFE Ls Rs
  36. Sampling rate                            : 48.0 kHz
  37. Frame rate                               : 31.250 FPS (1536 SPF)
  38. Compression mode                         : Lossy
  39. Stream size                              : 183 MiB (2%)
  40. Language                                 : English
  41. Service kind                             : Complete Main
  42. Default                                  : Yes
  43. Forced                                   : No
  44. Text
  45. ID                                       : 3
  46. Format                                   : UTF-8
  47. Codec ID                                 : S_TEXT/UTF8
  48. Codec ID/Info                            : UTF-8 Plain Text
  49. Duration                                 : 1 h 32 min
  50. Bit rate                                 : 43 b/s
  51. Count of elements                        : 1040
  52. Stream size                              : 29.5 KiB (0%)
  53. Language                                 : English
  54. Default                                  : No
  55. Forced                                   : No
复制代码





                                       
                                       

                                       
                                       
                                       




回复

使用道具 举报

懒得打字嘛,点击右侧快捷回复 【右侧内容,后台自定义】
您需要登录后才可以回帖 登录 | 立即加入

本版积分规则

Archiver|小黑屋| 蓝光电影网 |网站地图

Copyright © 2021 Comsenz Inc. Powered by 蓝光电影网

蓝光电影网

本站内容由用户自主分享和转载自互联网,转载目的在于传递更多信息,并不代表本网赞同其观点和对其真实性负责。

如有侵权、违反国家法律政策行为,请联系我们,我们会第一时间及时清除和处理!

举报反馈邮箱:[email protected]

快速回复 返回顶部 返回列表