找回密码

蓝光电影网

查看: 203|回复: 0

[UHD.HEVC] 指环王3:王者无敌/指环王3:国王归来 The.Lord.of.the.Rings.The.Return.Of.The.King.2003.DISC1.EXTENDED.2160p.BluRay.REMUX.HEVC.DTS-HD.MA.TrueHD.7.1.Atmos-FGT 74.47GB

[复制链接]
蓝光币
1080
发表于 2020-12-2 14:09:40 | 显示全部楼层 |阅读模式


◎译  名 指环王3:王者无敌/指环王3:国王归来/指环王3:皇上回宫(豆友译名)/指环王III:王者无敌/魔戒3:王者归来/魔戒三部曲:王者再临(台/港)
◎片  名 The Lord of the Rings: The Return of the King
◎年  代 2003
◎产  地 美国,新西兰
◎类  别 剧情 / 行动 / 奇异 / 冒险
◎语  言 英语,昆雅语,古英语,辛达林语
◎上映日期 2003-12-17(美国) / 2004-03-12(中国大陆)
◎IMDb评分  8.9/10 from 1623535 users
◎IMDb链接  https://www.imdb.com/title/tt0167260/
◎豆瓣评分 9.2/10 from 583248 users
◎豆瓣链接 https://movie.douban.com/subject/1291552/
◎片  长 201分钟
◎导  演 彼得·杰克逊 Peter Jackson
◎编  剧 弗兰·威尔士 Fran Walsh / 菲利帕·鲍恩斯 Philippa Boyens / 彼得·杰克逊 Peter Jackson / J·R·R·托尔金 J.R.R. Tolkien
◎主  演 伊利亚·伍德 Elijah Wood
       西恩·奥斯汀 Sean Astin
       维果·莫腾森 Viggo Mortensen
       奥兰多·布鲁姆 Orlando Bloom
       伊恩·麦克莱恩 Ian McKellen
       肖恩·宾 Sean Bean
       多米尼克·莫纳汉 Dominic Monaghan
       丽芙·泰勒 Liv Tyler
       约翰·贝西 John Bach
       凯特·布兰切特 Cate Blanchett
       比利·博伊德 Billy Boyd
       萨德文·布罗菲 Sadwyn Brophy
       阿利斯泰尔·布朗宁 Alistair Browning
       马尔顿·索克斯 Marton Csokas
       伯纳德·希尔 Bernard Hill
       伊安·霍姆 Ian Holm
       布鲁斯·霍普金斯 Bruce Hopkins
       Ian Hughes
       劳伦斯·马克奥雷 Lawrence Makoare
       Noel Appleby
       布雷特·麦肯齐 Bret McKenzie
       Alexandra Astin
       Sarah McLeod
       Maisy McLeod-Riera
       约翰·诺贝尔 John Noble
       Paul Norell
       米兰达·奥图 Miranda Otto
       布鲁斯·菲利普斯 Bruce Phillips
       沙恩·朗吉 Shane Rangi
       约翰·瑞斯-戴维斯 John Rhys-Davies
       Todd Rippon
       安迪·瑟金斯 Andy Serkis
       Harry Sinclair
       乔尔·托贝克 Joel Tobeck
       卡尔·厄本 Karl Urban
       史蒂芬·乌瑞 Stephen Ure
       雨果·维文 Hugo Weaving
       大卫·文翰 David Wenham
       阿兰·霍华德 Alan Howard
       萨拉·贝克 Sala Baker
       Robert Pollock
       佩特·史姑娘 Pete Smith
       杰德·布罗菲 Jed Brophy
       菲利普·格里夫 Philip Grieve
       布拉德·道里夫 Brad Dourif
       克里斯托弗·李 Christopher Lee
       布鲁斯·斯宾斯 Bruce Spence
       吉诺·阿赛维多 Gino Acevedo
       Jarl Benzon
       J?rn Benzon
       Robert Catto
       Michael Elsworth
       彼得·杰克逊 Peter Jackson
       Sandro Kopp
       安德鲁·莱斯尼 Andrew Lesnie
       约瑟夫·米卡-亨特 Joseph Mika-Hunt
       亨利·莫腾森 Henry Mortensen
       克雷格·帕克 Craig Parker
       克里斯蒂安·瑞沃斯 Christian Rivers
       迈克尔·斯曼外科  Michael Semanick
       霍华德·肖 Howard Shore
       约翰·斯蒂芬森 John Stephenson
       理查德·泰勒 Richard Taylor
       金永钢 Yonggang Jin
       张磊 Lei Zhang
       姜广涛 Guangtao Jiang
◎标  签 魔幻 | 史诗 | 典范 | 美国 | 战争 | 奥斯卡 | 新西兰 | 剧情
◎简  介


  魔幻战争逐步进入飞腾阶段。霍比特人弗拉多(伊利亚·伍德 Elijah Wood 饰)照顾着魔戒,与伙伴山姆(Sean Astin 饰)以及狡猾阴晦的咕噜等前往末日山,一路上艰难险阻不竭,魔君索伦为阻止魔戒被烧毁用尽尽力阻止。另一方面,白袍巫师甘道夫(伊安·麦克莱恩 Ian McKellen 饰)率中土勇士们镇守刚铎都城——白城米那斯提里斯。魔兽雄师压境,黑暗与光亮的决战行未到临……
  
  本片是“指环王三部曲”的终结篇,按照英国作家J.R.R.托尔金(J.R.R. Tolkien)同名魔幻巨著《指环王》(The Lord of the Rings)改编,并荣获2004年第76届奥斯卡最好影片、最好导演、最好改编剧本、最好剪辑、最好艺术指导、最好打扮设想、最好化装、最好视觉结果、最好音效、最好配乐和最好歌曲等11项大奖。
◎获奖情况
  第76届奥斯卡金像奖 ?(2004)
  最好影片 巴里·M·奥斯本?/?弗兰·威尔士?/?彼得·杰克逊
  最好导演 彼得·杰克逊
  最好改编剧本 弗兰·威尔士?/?彼得·杰克逊?/?菲利帕·鲍恩斯
  最好剪辑 杰米·塞尔柯克
  最好视觉结果 亚历克斯·方克?/?吉姆·瑞吉尔?/?乔·莱特瑞?/?兰德尔·威廉·库克
  最好混音 迈克·亨吉斯?/?哈蒙德·匹克?/?克里斯托弗·博伊斯?/?迈克尔·斯曼外科
  最好艺术指导 丹·汉纳?/?格兰特·梅杰?/?艾伦·李
  最好打扮设想 恩吉拉·迪克森?/?理查德·泰勒
  最好化装 理查德·泰勒?/?彼得·金
  最好原创配乐 霍华德·肖
  最好原创歌曲 霍华德·肖?/?安妮·蓝妮克丝?/?弗兰·威尔士
  
  第61届金球奖 ?(2004)
  电影类最好剧情片
  电影类最好导演 彼得·杰克逊
  电影类最好原创配乐 霍华德·肖
  电影类最好原创歌曲 弗兰·威尔士?/?安妮·蓝妮克丝?/?霍华德·肖
  
  第57届英国电影学院奖 ?(2004)
  电影奖最好影片 巴里·M·奥斯本?/?彼得·杰克逊?/?弗兰·威尔士
  电影奖最好导演(提名) 彼得·杰克逊
  电影奖最好男配角(提名) 伊恩·麦克莱恩
  电影奖最好改编剧本 菲利帕·鲍恩斯?/?彼得·杰克逊?/?弗兰·威尔士
  电影奖最好摄影 安德鲁·莱斯尼
  电影奖最好剪辑(提名) 杰米·塞尔柯克
  电影奖最好化装/发型(提名) 彼得·金?/?彼得·欧文?/?理查德·泰勒
  电影奖最好打扮设想(提名) 恩吉拉·迪克森?/?理查德·泰勒?/?恩吉拉·迪克森?/?理查德·泰勒
  电影奖最好艺术指导(提名) 格兰特·梅杰
  电影奖最好特别视觉结果 吉姆·瑞吉尔?/?兰德尔·威廉·库克?/?乔·莱特瑞?/?亚历克斯·方克
  电影奖最好原创音乐(提名) 霍华德·肖
  电影奖最好音效(提名) 迈克·亨吉斯?/?大卫·法默?/?迈克尔·斯曼外科?/?克里斯托弗·博伊斯?/?哈蒙德·匹克?/?迈克·霍普金斯?/?伊桑·范德莱恩
  电影奖观众挑选奖
  
  第28届日本电影学院奖 ?(2005)
  最好外语片(提名)
  
  第4届美国电影学会奖 ?(2003)
  年度佳片
  1. Video
  2. ID                                       : 1
  3. ID in the original source medium         : 4113 (0x1011)
  4. Format                                   : HEVC
  5. Format/Info                              : High Efficiency Video Coding
  6. Format profile                           : Main [email protected]@High
  7. HDR format                               : SMPTE ST 2086, HDR10 compatible
  8. Codec ID                                 : V_MPEGH/ISO/HEVC
  9. Duration                                 : 2 h 7 min
  10. Bit rate                                 : 64.2 Mb/s
  11. Width                                    : 3 840 pixels
  12. Height                                   : 2 160 pixels
  13. Display aspect ratio                     : 16:9
  14. Frame rate mode                          : Constant
  15. Frame rate                               : 23.976 (24000/1001/189150) FPS
  16. Color space                              : YUV
  17. Chroma subsampling                       : 4:2:0 (Type 2)
  18. Bit depth                                : 10 bits
  19. Bits/(Pixel*Frame)                       : 0.323
  20. Stream size                              : 57.3 GiB (77%)
  21. Title                                    : The.Lord.of.the.Rings.The.Return.Of.The.King.2003.DISC1.EXTENDED.2160p.BluRay.REMUX.HEVC.DTS-HD.MA.TrueHD.7.1.Atmos-FGT
  22. Language                                 : English
  23. Default                                  : No
  24. Forced                                   : No
  25. Color range                              : Limited
  26. Color primaries                          : BT.2020
  27. Transfer characteristics                 : PQ
  28. Matrix coefficients                      : BT.2020 non-constant
  29. Mastering display color primaries        : Display P3
  30. Mastering display luminance              : min: 0.0050 cd/m2, max: 4000 cd/m2
  31. Maximum Content Light Level              : 636 cd/m2
  32. Maximum Frame-Average Light Level        : 103 cd/m2
  33. Original source medium                   : Blu-ray
  34. Audio #1
  35. ID                                       : 2
  36. ID in the original source medium         : 4352 (0x1100)
  37. Format                                   : MLP FBA 16-ch
  38. Format/Info                              : Meridian Lossless Packing FBA with 16-channel presentation
  39. Commercial name                          : Dolby TrueHD with Dolby Atmos
  40. Codec ID                                 : A_TRUEHD
  41. Duration                                 : 2 h 7 min
  42. Bit rate mode                            : Variable
  43. Bit rate                                 : 2 985 kb/s
  44. Maximum bit rate                         : 4 515 kb/s
  45. Channel(s)                               : 8 channels
  46. Channel layout                           : L R C LFE Ls Rs Lb Rb
  47. Sampling rate                            : 48.0 kHz
  48. Frame rate                               : 1 200.000 FPS (40 SPF)
  49. Compression mode                         : Lossless
  50. Stream size                              : 2.66 GiB (4%)
  51. Title                                    : The.Lord.of.the.Rings.The.Return.Of.The.King.2003.DISC1.EXTENDED.2160p.BluRay.REMUX.HEVC.DTS-HD.MA.TrueHD.7.1.Atmos-FGT
  52. Language                                 : English
  53. Default                                  : Yes
  54. Forced                                   : No
  55. Original source medium                   : Blu-ray
  56. Number of dynamic objects                : 11
  57. Bed channel count                        : 1 channel
  58. Bed channel configuration                : LFE
  59. Audio #2
  60. ID                                       : 3
  61. Format                                   : DTS XLL
  62. Format/Info                              : Digital Theater Systems
  63. Commercial name                          : DTS-HD Master Audio
  64. Codec ID                                 : A_DTS
  65. Duration                                 : 2 h 7 min
  66. Bit rate mode                            : Variable
  67. Bit rate                                 : 3 847 kb/s
  68. Channel(s)                               : 8 channels
  69. Channel layout                           : C L R LFE Lb Rb Lss Rss
  70. Sampling rate                            : 48.0 kHz
  71. Frame rate                               : 93.750 FPS (512 SPF)
  72. Bit depth                                : 24 bits
  73. Compression mode                         : Lossless
  74. Stream size                              : 3.43 GiB (5%)
  75. Title                                    : The.Lord.of.the.Rings.The.Return.Of.The.King.2003.DISC1.EXTENDED.2160p.BluRay.REMUX.HEVC.DTS-HD.MA.TrueHD.7.1.Atmos-FGT
  76. Language                                 : English
  77. Default                                  : No
  78. Forced                                   : No
  79. Audio #3
  80. ID                                       : 4
  81. ID in the original source medium         : 4352 (0x1100)
  82. Format                                   : AC-3
  83. Format/Info                              : Audio Coding 3
  84. Commercial name                          : Dolby Digital
  85. Codec ID                                 : A_AC3
  86. Duration                                 : 2 h 7 min
  87. Bit rate mode                            : Constant
  88. Bit rate                                 : 448 kb/s
  89. Channel(s)                               : 6 channels
  90. Channel layout                           : L R C LFE Ls Rs
  91. Sampling rate                            : 48.0 kHz
  92. Frame rate                               : 31.250 FPS (1536 SPF)
  93. Compression mode                         : Lossy
  94. Stream size                              : 409 MiB (1%)
  95. Title                                    : The.Lord.of.the.Rings.The.Return.Of.The.King.2003.DISC1.EXTENDED.2160p.BluRay.REMUX.HEVC.DTS-HD.MA.TrueHD.7.1.Atmos-FGT
  96. Language                                 : English
  97. Service kind                             : Complete Main
  98. Default                                  : No
  99. Forced                                   : No
  100. Original source medium                   : Blu-ray
  101. Audio #4
  102. ID                                       : 5
  103. ID in the original source medium         : 4353 (0x1101)
  104. Format                                   : DTS ES XXCH XLL
  105. Format/Info                              : Digital Theater Systems
  106. Commercial name                          : DTS-HD Master Audio
  107. Codec ID                                 : A_DTS
  108. Duration                                 : 2 h 7 min
  109. Bit rate mode                            : Variable
  110. Bit rate                                 : 2 562 kb/s
  111. Channel(s)                               : 7 channels
  112. Channel layout                           : C L R Ls Rs LFE Cb
  113. Sampling rate                            : 48.0 kHz
  114. Frame rate                               : 93.750 FPS (512 SPF)
  115. Bit depth                                : 16 bits
  116. Compression mode                         : Lossless
  117. Stream size                              : 2.28 GiB (3%)
  118. Title                                    : The.Lord.of.the.Rings.The.Return.Of.The.King.2003.DISC1.EXTENDED.2160p.BluRay.REMUX.HEVC.DTS-HD.MA.TrueHD.7.1.Atmos-FGT
  119. Language                                 : French
  120. Default                                  : No
  121. Forced                                   : No
  122. Original source medium                   : Blu-ray
  123. Audio #5
  124. ID                                       : 6
  125. ID in the original source medium         : 4354 (0x1102)
  126. Format                                   : DTS ES XXCH XLL
  127. Format/Info                              : Digital Theater Systems
  128. Commercial name                          : DTS-HD Master Audio
  129. Codec ID                                 : A_DTS
  130. Duration                                 : 2 h 7 min
  131. Bit rate mode                            : Variable
  132. Bit rate                                 : 2 457 kb/s
  133. Channel(s)                               : 7 channels
  134. Channel layout                           : C L R Ls Rs LFE Cb
  135. Sampling rate                            : 48.0 kHz
  136. Frame rate                               : 93.750 FPS (512 SPF)
  137. Bit depth                                : 16 bits
  138. Compression mode                         : Lossless
  139. Stream size                              : 2.19 GiB (3%)
  140. Title                                    : The.Lord.of.the.Rings.The.Return.Of.The.King.2003.DISC1.EXTENDED.2160p.BluRay.REMUX.HEVC.DTS-HD.MA.TrueHD.7.1.Atmos-FGT
  141. Language                                 : German
  142. Default                                  : No
  143. Forced                                   : No
  144. Original source medium                   : Blu-ray
  145. Audio #6
  146. ID                                       : 7
  147. ID in the original source medium         : 4355 (0x1103)
  148. Format                                   : DTS XLL
  149. Format/Info                              : Digital Theater Systems
  150. Commercial name                          : DTS-HD Master Audio
  151. Codec ID                                 : A_DTS
  152. Duration                                 : 2 h 7 min
  153. Bit rate mode                            : Variable
  154. Bit rate                                 : 2 308 kb/s
  155. Channel(s)                               : 6 channels
  156. Channel layout                           : C L R Ls Rs LFE
  157. Sampling rate                            : 48.0 kHz
  158. Frame rate                               : 93.750 FPS (512 SPF)
  159. Bit depth                                : 16 bits
  160. Compression mode                         : Lossless
  161. Stream size                              : 2.06 GiB (3%)
  162. Title                                    : The.Lord.of.the.Rings.The.Return.Of.The.King.2003.DISC1.EXTENDED.2160p.BluRay.REMUX.HEVC.DTS-HD.MA.TrueHD.7.1.Atmos-FGT
  163. Language                                 : Italian
  164. Default                                  : No
  165. Forced                                   : No
  166. Original source medium                   : Blu-ray
  167. Audio #7
  168. ID                                       : 8
  169. ID in the original source medium         : 4356 (0x1104)
  170. Format                                   : DTS XLL
  171. Format/Info                              : Digital Theater Systems
  172. Commercial name                          : DTS-HD Master Audio
  173. Codec ID                                 : A_DTS
  174. Duration                                 : 2 h 7 min
  175. Bit rate mode                            : Variable
  176. Bit rate                                 : 2 216 kb/s
  177. Channel(s)                               : 6 channels
  178. Channel layout                           : C L R Ls Rs LFE
  179. Sampling rate                            : 48.0 kHz
  180. Frame rate                               : 93.750 FPS (512 SPF)
  181. Bit depth                                : 16 bits
  182. Compression mode                         : Lossless
  183. Stream size                              : 1.98 GiB (3%)
  184. Title                                    : The.Lord.of.the.Rings.The.Return.Of.The.King.2003.DISC1.EXTENDED.2160p.BluRay.REMUX.HEVC.DTS-HD.MA.TrueHD.7.1.Atmos-FGT
  185. Language                                 : Spanish
  186. Default                                  : No
  187. Forced                                   : No
  188. Original source medium                   : Blu-ray
  189. Audio #8
  190. ID                                       : 9
  191. ID in the original source medium         : 4357 (0x1105)
  192. Format                                   : DTS XLL
  193. Format/Info                              : Digital Theater Systems
  194. Commercial name                          : DTS-HD Master Audio
  195. Codec ID                                 : A_DTS
  196. Duration                                 : 2 h 7 min
  197. Bit rate mode                            : Variable
  198. Bit rate                                 : 2 195 kb/s
  199. Channel(s)                               : 6 channels
  200. Channel layout                           : C L R Ls Rs LFE
  201. Sampling rate                            : 48.0 kHz
  202. Frame rate                               : 93.750 FPS (512 SPF)
  203. Bit depth                                : 16 bits
  204. Compression mode                         : Lossless
  205. Stream size                              : 1.96 GiB (3%)
  206. Title                                    : The.Lord.of.the.Rings.The.Return.Of.The.King.2003.DISC1.EXTENDED.2160p.BluRay.REMUX.HEVC.DTS-HD.MA.TrueHD.7.1.Atmos-FGT
  207. Language                                 : Japanese
  208. Default                                  : No
  209. Forced                                   : No
  210. Original source medium                   : Blu-ray
  211. Text #1
  212. ID                                       : 10
  213. Format                                   : UTF-8
  214. Codec ID                                 : S_TEXT/UTF8
  215. Codec ID/Info                            : UTF-8 Plain Text
  216. Duration                                 : 2 h 6 min
  217. Bit rate                                 : 36 b/s
  218. Count of elements                        : 1153
  219. Stream size                              : 33.5 KiB (0%)
  220. Title                                    : English-SRT
  221. Language                                 : English
  222. Default                                  : Yes
  223. Forced                                   : No
  224. Text #2
  225. ID                                       : 11
  226. ID in the original source medium         : 4768 (0x12A0)
  227. Format                                   : PGS
  228. Muxing mode                              : zlib
  229. Codec ID                                 : S_HDMV/PGS
  230. Codec ID/Info                            : Picture based subtitle format used on BDs/HD-DVDs
  231. Duration                                 : 2 h 6 min
  232. Bit rate                                 : 23.6 kb/s
  233. Count of elements                        : 2610
  234. Stream size                              : 21.4 MiB (0%)
  235. Title                                    : English-PGS
  236. Language                                 : English
  237. Default                                  : No
  238. Forced                                   : No
  239. Original source medium                   : Blu-ray
  240. Text #3
  241. ID                                       : 12
  242. ID in the original source medium         : 4769 (0x12A1)
  243. Format                                   : PGS
  244. Muxing mode                              : zlib
  245. Codec ID                                 : S_HDMV/PGS
  246. Codec ID/Info                            : Picture based subtitle format used on BDs/HD-DVDs
  247. Duration                                 : 2 h 7 min
  248. Bit rate                                 : 19.3 kb/s
  249. Count of elements                        : 2362
  250. Stream size                              : 17.5 MiB (0%)
  251. Title                                    : French-PGS
  252. Language                                 : French
  253. Default                                  : No
  254. Forced                                   : No
  255. Original source medium                   : Blu-ray
  256. Text #4
  257. ID                                       : 13
  258. ID in the original source medium         : 4770 (0x12A2)
  259. Format                                   : PGS
  260. Muxing mode                              : zlib
  261. Codec ID                                 : S_HDMV/PGS
  262. Codec ID/Info                            : Picture based subtitle format used on BDs/HD-DVDs
  263. Duration                                 : 2 h 6 min
  264. Bit rate                                 : 27.5 kb/s
  265. Count of elements                        : 2470
  266. Stream size                              : 24.9 MiB (0%)
  267. Title                                    : German-PGS
  268. Language                                 : German
  269. Default                                  : No
  270. Forced                                   : No
  271. Original source medium                   : Blu-ray
  272. Text #5
  273. ID                                       : 14
  274. ID in the original source medium         : 4771 (0x12A3)
  275. Format                                   : PGS
  276. Muxing mode                              : zlib
  277. Codec ID                                 : S_HDMV/PGS
  278. Codec ID/Info                            : Picture based subtitle format used on BDs/HD-DVDs
  279. Duration                                 : 2 h 6 min
  280. Bit rate                                 : 24.1 kb/s
  281. Count of elements                        : 2614
  282. Stream size                              : 21.9 MiB (0%)
  283. Title                                    : Italian-PGS
  284. Language                                 : Italian
  285. Default                                  : No
  286. Forced                                   : No
  287. Original source medium                   : Blu-ray
  288. Text #6
  289. ID                                       : 15
  290. ID in the original source medium         : 4772 (0x12A4)
  291. Format                                   : PGS
  292. Muxing mode                              : zlib
  293. Codec ID                                 : S_HDMV/PGS
  294. Codec ID/Info                            : Picture based subtitle format used on BDs/HD-DVDs
  295. Duration                                 : 2 h 6 min
  296. Bit rate                                 : 21.2 kb/s
  297. Count of elements                        : 2338
  298. Stream size                              : 19.2 MiB (0%)
  299. Title                                    : Spanish-PGS
  300. Language                                 : Spanish
  301. Default                                  : No
  302. Forced                                   : No
  303. Original source medium                   : Blu-ray
  304. Text #7
  305. ID                                       : 16
  306. ID in the original source medium         : 4773 (0x12A5)
  307. Format                                   : PGS
  308. Muxing mode                              : zlib
  309. Codec ID                                 : S_HDMV/PGS
  310. Codec ID/Info                            : Picture based subtitle format used on BDs/HD-DVDs
  311. Duration                                 : 2 h 5 min
  312. Bit rate                                 : 21.4 kb/s
  313. Count of elements                        : 2208
  314. Stream size                              : 19.3 MiB (0%)
  315. Title                                    : Dutch-PGS
  316. Language                                 : Dutch
  317. Default                                  : No
  318. Forced                                   : No
  319. Original source medium                   : Blu-ray
  320. Text #8
  321. ID                                       : 17
  322. ID in the original source medium         : 4774 (0x12A6)
  323. Format                                   : PGS
  324. Muxing mode                              : zlib
  325. Codec ID                                 : S_HDMV/PGS
  326. Codec ID/Info                            : Picture based subtitle format used on BDs/HD-DVDs
  327. Duration                                 : 2 h 6 min
  328. Bit rate                                 : 18.8 kb/s
  329. Count of elements                        : 2314
  330. Stream size                              : 17.1 MiB (0%)
  331. Title                                    : Chinese-PGS
  332. Language                                 : Chinese
  333. Default                                  : No
  334. Forced                                   : No
  335. Original source medium                   : Blu-ray
  336. Text #9
  337. ID                                       : 18
  338. ID in the original source medium         : 4775 (0x12A7)
  339. Format                                   : PGS
  340. Muxing mode                              : zlib
  341. Codec ID                                 : S_HDMV/PGS
  342. Codec ID/Info                            : Picture based subtitle format used on BDs/HD-DVDs
  343. Duration                                 : 2 h 6 min
  344. Bit rate                                 : 19.0 kb/s
  345. Count of elements                        : 2314
  346. Stream size                              : 17.2 MiB (0%)
  347. Title                                    : Chinese-PGS
  348. Language                                 : Chinese
  349. Default                                  : No
  350. Forced                                   : No
  351. Original source medium                   : Blu-ray
  352. Text #10
  353. ID                                       : 19
  354. ID in the original source medium         : 4776 (0x12A8)
  355. Format                                   : PGS
  356. Muxing mode                              : zlib
  357. Codec ID                                 : S_HDMV/PGS
  358. Codec ID/Info                            : Picture based subtitle format used on BDs/HD-DVDs
  359. Duration                                 : 2 h 6 min
  360. Bit rate                                 : 17.2 kb/s
  361. Count of elements                        : 2314
  362. Stream size                              : 15.6 MiB (0%)
  363. Title                                    : Korean-PGS
  364. Language                                 : Korean
  365. Default                                  : No
  366. Forced                                   : No
  367. Original source medium                   : Blu-ray
  368. Text #11
  369. ID                                       : 20
  370. ID in the original source medium         : 4777 (0x12A9)
  371. Format                                   : PGS
  372. Muxing mode                              : zlib
  373. Codec ID                                 : S_HDMV/PGS
  374. Codec ID/Info                            : Picture based subtitle format used on BDs/HD-DVDs
  375. Duration                                 : 2 h 6 min
  376. Bit rate                                 : 21.6 kb/s
  377. Count of elements                        : 2286
  378. Stream size                              : 19.6 MiB (0%)
  379. Title                                    : Spanish-PGS
  380. Language                                 : Spanish
  381. Default                                  : No
  382. Forced                                   : No
  383. Original source medium                   : Blu-ray
  384. Text #12
  385. ID                                       : 21
  386. ID in the original source medium         : 4778 (0x12AA)
  387. Format                                   : PGS
  388. Muxing mode                              : zlib
  389. Codec ID                                 : S_HDMV/PGS
  390. Codec ID/Info                            : Picture based subtitle format used on BDs/HD-DVDs
  391. Duration                                 : 2 h 7 min
  392. Bit rate                                 : 19.1 kb/s
  393. Count of elements                        : 2292
  394. Stream size                              : 17.4 MiB (0%)
  395. Title                                    : Czech-PGS
  396. Language                                 : Czech
  397. Default                                  : No
  398. Forced                                   : No
  399. Original source medium                   : Blu-ray
  400. Text #13
  401. ID                                       : 22
  402. ID in the original source medium         : 4779 (0x12AB)
  403. Format                                   : PGS
  404. Muxing mode                              : zlib
  405. Codec ID                                 : S_HDMV/PGS
  406. Codec ID/Info                            : Picture based subtitle format used on BDs/HD-DVDs
  407. Duration                                 : 2 h 6 min
  408. Bit rate                                 : 18.7 kb/s
  409. Count of elements                        : 1744
  410. Stream size                              : 17.0 MiB (0%)
  411. Title                                    : Danish-PGS
  412. Language                                 : Danish
  413. Default                                  : No
  414. Forced                                   : No
  415. Original source medium                   : Blu-ray
  416. Text #14
  417. ID                                       : 23
  418. ID in the original source medium         : 4780 (0x12AC)
  419. Format                                   : PGS
  420. Muxing mode                              : zlib
  421. Codec ID                                 : S_HDMV/PGS
  422. Codec ID/Info                            : Picture based subtitle format used on BDs/HD-DVDs
  423. Duration                                 : 2 h 6 min
  424. Bit rate                                 : 20.0 kb/s
  425. Count of elements                        : 2320
  426. Stream size                              : 18.2 MiB (0%)
  427. Title                                    : Finnish-PGS
  428. Language                                 : Finnish
  429. Default                                  : No
  430. Forced                                   : No
  431. Original source medium                   : Blu-ray
  432. Text #15
  433. ID                                       : 24
  434. ID in the original source medium         : 4781 (0x12AD)
  435. Format                                   : PGS
  436. Muxing mode                              : zlib
  437. Codec ID                                 : S_HDMV/PGS
  438. Codec ID/Info                            : Picture based subtitle format used on BDs/HD-DVDs
  439. Duration                                 : 2 h 6 min
  440. Bit rate                                 : 22.7 kb/s
  441. Count of elements                        : 2312
  442. Stream size                              : 20.6 MiB (0%)
  443. Title                                    : Greek-PGS
  444. Language                                 : Greek
  445. Default                                  : No
  446. Forced                                   : No
  447. Original source medium                   : Blu-ray
  448. Text #16
  449. ID                                       : 25
  450. ID in the original source medium         : 4782 (0x12AE)
  451. Format                                   : PGS
  452. Muxing mode                              : zlib
  453. Codec ID                                 : S_HDMV/PGS
  454. Codec ID/Info                            : Picture based subtitle format used on BDs/HD-DVDs
  455. Duration                                 : 2 h 6 min
  456. Bit rate                                 : 18.0 kb/s
  457. Count of elements                        : 1636
  458. Stream size                              : 16.3 MiB (0%)
  459. Title                                    : Norwegian-PGS
  460. Language                                 : Norwegian
  461. Default                                  : No
  462. Forced                                   : No
  463. Original source medium                   : Blu-ray
  464. Text #17
  465. ID                                       : 26
  466. ID in the original source medium         : 4783 (0x12AF)
  467. Format                                   : PGS
  468. Muxing mode                              : zlib
  469. Codec ID                                 : S_HDMV/PGS
  470. Codec ID/Info                            : Picture based subtitle format used on BDs/HD-DVDs
  471. Duration                                 : 2 h 6 min
  472. Bit rate                                 : 19.1 kb/s
  473. Count of elements                        : 2246
  474. Stream size                              : 17.3 MiB (0%)
  475. Title                                    : Polish-PGS
  476. Language                                 : Polish
  477. Default                                  : No
  478. Forced                                   : No
  479. Original source medium                   : Blu-ray
  480. Text #18
  481. ID                                       : 27
  482. ID in the original source medium         : 4784 (0x12B0)
  483. Format                                   : PGS
  484. Muxing mode                              : zlib
  485. Codec ID                                 : S_HDMV/PGS
  486. Codec ID/Info                            : Picture based subtitle format used on BDs/HD-DVDs
  487. Duration                                 : 2 h 6 min
  488. Bit rate                                 : 19.9 kb/s
  489. Count of elements                        : 1726
  490. Stream size                              : 18.0 MiB (0%)
  491. Title                                    : Swedish-PGS
  492. Language                                 : Swedish
  493. Default                                  : No
  494. Forced                                   : No
  495. Original source medium                   : Blu-ray
  496. Text #19
  497. ID                                       : 28
  498. ID in the original source medium         : 4785 (0x12B1)
  499. Format                                   : PGS
  500. Muxing mode                              : zlib
  501. Codec ID                                 : S_HDMV/PGS
  502. Codec ID/Info                            : Picture based subtitle format used on BDs/HD-DVDs
  503. Duration                                 : 2 h 6 min
  504. Bit rate                                 : 18.4 kb/s
  505. Count of elements                        : 2300
  506. Stream size                              : 16.6 MiB (0%)
  507. Title                                    : Thai-PGS
  508. Language                                 : Thai
  509. Default                                  : No
  510. Forced                                   : No
  511. Original source medium                   : Blu-ray
  512. Text #20
  513. ID                                       : 29
  514. ID in the original source medium         : 4786 (0x12B2)
  515. Format                                   : PGS
  516. Muxing mode                              : zlib
  517. Codec ID                                 : S_HDMV/PGS
  518. Codec ID/Info                            : Picture based subtitle format used on BDs/HD-DVDs
  519. Duration                                 : 1 h 42 min
  520. Bit rate                                 : 73 b/s
  521. Count of elements                        : 8
  522. Stream size                              : 55.0 KiB (0%)
  523. Title                                    : French-FORCED-PGS
  524. Language                                 : French
  525. Default                                  : No
  526. Forced                                   : No
  527. Original source medium                   : Blu-ray
  528. Text #21
  529. ID                                       : 30
  530. ID in the original source medium         : 4787 (0x12B3)
  531. Format                                   : PGS
  532. Muxing mode                              : zlib
  533. Codec ID                                 : S_HDMV/PGS
  534. Codec ID/Info                            : Picture based subtitle format used on BDs/HD-DVDs
  535. Duration                                 : 10 s 114 ms
  536. Bit rate                                 : 37.4 kb/s
  537. Count of elements                        : 4
  538. Stream size                              : 46.2 KiB (0%)
  539. Title                                    : German-FORCED-PGS
  540. Language                                 : German
  541. Default                                  : No
  542. Forced                                   : No
  543. Original source medium                   : Blu-ray
  544. Text #22
  545. ID                                       : 31
  546. ID in the original source medium         : 4788 (0x12B4)
  547. Format                                   : PGS
  548. Muxing mode                              : zlib
  549. Codec ID                                 : S_HDMV/PGS
  550. Codec ID/Info                            : Picture based subtitle format used on BDs/HD-DVDs
  551. Duration                                 : 10 s 198 ms
  552. Bit rate                                 : 21.0 kb/s
  553. Count of elements                        : 4
  554. Stream size                              : 26.1 KiB (0%)
  555. Title                                    : Italian-FORCED-PGS
  556. Language                                 : Italian
  557. Default                                  : No
  558. Forced                                   : No
  559. Original source medium                   : Blu-ray
  560. Text #23
  561. ID                                       : 32
  562. ID in the original source medium         : 4789 (0x12B5)
  563. Format                                   : PGS
  564. Muxing mode                              : zlib
  565. Codec ID                                 : S_HDMV/PGS
  566. Codec ID/Info                            : Picture based subtitle format used on BDs/HD-DVDs
  567. Duration                                 : 10 s 240 ms
  568. Bit rate                                 : 26.9 kb/s
  569. Count of elements                        : 4
  570. Stream size                              : 33.6 KiB (0%)
  571. Title                                    : Spanish-FORCED-PGS
  572. Language                                 : Spanish
  573. Default                                  : No
  574. Forced                                   : No
  575. Original source medium                   : Blu-ray
  576. Text #24
  577. ID                                       : 33
  578. ID in the original source medium         : 4790 (0x12B6)
  579. Format                                   : PGS
  580. Muxing mode                              : zlib
  581. Codec ID                                 : S_HDMV/PGS
  582. Codec ID/Info                            : Picture based subtitle format used on BDs/HD-DVDs
  583. Duration                                 : 2 h 5 min
  584. Bit rate                                 : 18.0 kb/s
  585. Count of elements                        : 2208
  586. Stream size                              : 16.2 MiB (0%)
  587. Title                                    : Japanese-PGS
  588. Language                                 : Japanese
  589. Default                                  : No
  590. Forced                                   : No
  591. Original source medium                   : Blu-ray
  592. Text #25
  593. ID                                       : 34
  594. ID in the original source medium         : 4791 (0x12B7)
  595. Format                                   : PGS
  596. Muxing mode                              : zlib
  597. Codec ID                                 : S_HDMV/PGS
  598. Codec ID/Info                            : Picture based subtitle format used on BDs/HD-DVDs
  599. Duration                                 : 1 h 32 min
  600. Bit rate                                 : 121 b/s
  601. Count of elements                        : 10
  602. Stream size                              : 82.5 KiB (0%)
  603. Title                                    : Japanese-FORCED-PGS
  604. Language                                 : Japanese
  605. Default                                  : No
  606. Forced                                   : No
  607. Original source medium                   : Blu-ray
  608. Menu
  609. 00:00:00.000                             : en:Chapter 01
  610. 00:06:24.300                             : en:Chapter 02
  611. 00:09:21.227                             : en:Chapter 03
  612. 00:11:21.430                             : en:Chapter 04
  613. 00:18:23.268                             : en:Chapter 05
  614. 00:23:04.966                             : en:Chapter 06
  615. 00:27:03.288                             : en:Chapter 07
  616. 00:29:00.655                             : en:Chapter 08
  617. 00:37:06.265                             : en:Chapter 09
  618. 00:40:02.400                             : en:Chapter 10
  619. 00:42:02.353                             : en:Chapter 11
  620. 00:47:52.160                             : en:Chapter 12
  621. 00:50:18.265                             : en:Chapter 13
  622. 00:52:18.468                             : en:Chapter 14
  623. 00:55:35.290                             : en:Chapter 15
  624. 00:59:36.364                             : en:Chapter 16
  625. 01:00:23.661                             : en:Chapter 17
  626. 01:00:50.355                             : en:Chapter 18
  627. 01:04:30.074                             : en:Chapter 19
  628. 01:07:15.823                             : en:Chapter 20
  629. 01:10:34.939                             : en:Chapter 21
  630. 01:14:54.573                             : en:Chapter 22
  631. 01:17:21.928                             : en:Chapter 23
  632. 01:19:21.590                             : en:Chapter 24
  633. 01:20:00.879                             : en:Chapter 25
  634. 01:21:26.756                             : en:Chapter 26
  635. 01:23:48.898                             : en:Chapter 27
  636. 01:29:07.467                             : en:Chapter 28
  637. 01:33:57.256                             : en:Chapter 29
  638. 01:38:07.840                             : en:Chapter 30
  639. 01:42:49.288                             : en:Chapter 31
  640. 01:45:34.202                             : en:Chapter 32
  641. 01:46:57.244                             : en:Chapter 33
  642. 01:49:24.057                             : en:Chapter 34
  643. 01:51:09.746                             : en:Chapter 35
  644. 01:58:39.403                             : en:Chapter 36
复制代码



                                       
                                       

                                       
                                       
                                       




指环王3:王者无敌/指环王3:国王归来 The.Lord.of.the.Rings.The.Return.Of.The.King.2003.DISC1.EXTENDED.2160p.BluRay.REMUX.HEVC.DTS-HD.MA.TrueHD.7.1.Atmos-FGT 74.47GB

The.Lord.of.the.Rings.The.Return.Of.The.King.2003.DISC1.EXTENDED.2160p.BluRay.RE.atmos-fgt

187.06 KB, 下载次数: 35, 下载积分: 蓝光币 -2

回复

使用道具 举报

懒得打字嘛,点击右侧快捷回复 【右侧内容,后台自定义】
您需要登录后才可以回帖 登录 | 立即加入

本版积分规则

Archiver|小黑屋| 蓝光电影网 |网站地图

Copyright © 2021 Comsenz Inc. Powered by 蓝光电影网

蓝光电影网

本站内容由用户自主分享和转载自互联网,转载目的在于传递更多信息,并不代表本网赞同其观点和对其真实性负责。

如有侵权、违反国家法律政策行为,请联系我们,我们会第一时间及时清除和处理!

举报反馈邮箱:[email protected]

快速回复 返回顶部 返回列表