找回密码

蓝光电影网

查看: 225|回复: 0

[UHD.HEVC] 指环王3:王者无敌/指环王3:国王归来 The.Lord.of.the.Rings.The.Return.Of.The.King.2003.DISC2.EXTENDED.2160p.BluRay.REMUX.HEVC.DTS-HD.MA.TrueHD.7.1.Atmos-FGT 79.16GB

[复制链接]
蓝光币
1084
发表于 2020-12-2 14:09:06 | 显示全部楼层 |阅读模式


◎译  名 指环王3:王者无敌/指环王3:国王归来/指环王3:皇上回宫(豆友译名)/指环王III:王者无敌/魔戒3:王者归来/魔戒三部曲:王者再临(台/港)
◎片  名 The Lord of the Rings: The Return of the King
◎年  代 2003
◎产  地 美国,新西兰
◎类  别 剧情 / 行动 / 奇异 / 冒险
◎语  言 英语,昆雅语,古英语,辛达林语
◎上映日期 2003-12-17(美国) / 2004-03-12(中国大陆)
◎IMDb评分  8.9/10 from 1623535 users
◎IMDb链接  https://www.imdb.com/title/tt0167260/
◎豆瓣评分 9.2/10 from 583248 users
◎豆瓣链接 https://movie.douban.com/subject/1291552/
◎片  长 201分钟
◎导  演 彼得·杰克逊 Peter Jackson
◎编  剧 弗兰·威尔士 Fran Walsh / 菲利帕·鲍恩斯 Philippa Boyens / 彼得·杰克逊 Peter Jackson / J·R·R·托尔金 J.R.R. Tolkien
◎主  演 伊利亚·伍德 Elijah Wood
       西恩·奥斯汀 Sean Astin
       维果·莫腾森 Viggo Mortensen
       奥兰多·布鲁姆 Orlando Bloom
       伊恩·麦克莱恩 Ian McKellen
       肖恩·宾 Sean Bean
       多米尼克·莫纳汉 Dominic Monaghan
       丽芙·泰勒 Liv Tyler
       约翰·贝西 John Bach
       凯特·布兰切特 Cate Blanchett
       比利·博伊德 Billy Boyd
       萨德文·布罗菲 Sadwyn Brophy
       阿利斯泰尔·布朗宁 Alistair Browning
       马尔顿·索克斯 Marton Csokas
       伯纳德·希尔 Bernard Hill
       伊安·霍姆 Ian Holm
       布鲁斯·霍普金斯 Bruce Hopkins
       Ian Hughes
       劳伦斯·马克奥雷 Lawrence Makoare
       Noel Appleby
       布雷特·麦肯齐 Bret McKenzie
       Alexandra Astin
       Sarah McLeod
       Maisy McLeod-Riera
       约翰·诺贝尔 John Noble
       Paul Norell
       米兰达·奥图 Miranda Otto
       布鲁斯·菲利普斯 Bruce Phillips
       沙恩·朗吉 Shane Rangi
       约翰·瑞斯-戴维斯 John Rhys-Davies
       Todd Rippon
       安迪·瑟金斯 Andy Serkis
       Harry Sinclair
       乔尔·托贝克 Joel Tobeck
       卡尔·厄本 Karl Urban
       史蒂芬·乌瑞 Stephen Ure
       雨果·维文 Hugo Weaving
       大卫·文翰 David Wenham
       阿兰·霍华德 Alan Howard
       萨拉·贝克 Sala Baker
       Robert Pollock
       佩特·史姑娘 Pete Smith
       杰德·布罗菲 Jed Brophy
       菲利普·格里夫 Philip Grieve
       布拉德·道里夫 Brad Dourif
       克里斯托弗·李 Christopher Lee
       布鲁斯·斯宾斯 Bruce Spence
       吉诺·阿赛维多 Gino Acevedo
       Jarl Benzon
       J?rn Benzon
       Robert Catto
       Michael Elsworth
       彼得·杰克逊 Peter Jackson
       Sandro Kopp
       安德鲁·莱斯尼 Andrew Lesnie
       约瑟夫·米卡-亨特 Joseph Mika-Hunt
       亨利·莫腾森 Henry Mortensen
       克雷格·帕克 Craig Parker
       克里斯蒂安·瑞沃斯 Christian Rivers
       迈克尔·斯曼外科  Michael Semanick
       霍华德·肖 Howard Shore
       约翰·斯蒂芬森 John Stephenson
       理查德·泰勒 Richard Taylor
       金永钢 Yonggang Jin
       张磊 Lei Zhang
       姜广涛 Guangtao Jiang
◎标  签 魔幻 | 史诗 | 典范 | 美国 | 战争 | 奥斯卡 | 新西兰 | 剧情
◎简  介


  魔幻战争逐步进入飞腾阶段。霍比特人弗拉多(伊利亚·伍德 Elijah Wood 饰)照顾着魔戒,与伙伴山姆(Sean Astin 饰)以及狡猾阴晦的咕噜等前往末日山,一路上艰难险阻不竭,魔君索伦为阻止魔戒被烧毁用尽尽力阻止。另一方面,白袍巫师甘道夫(伊安·麦克莱恩 Ian McKellen 饰)率中土勇士们镇守刚铎都城——白城米那斯提里斯。魔兽雄师压境,黑暗与光亮的决战行未到临……
  
  本片是“指环王三部曲”的终结篇,按照英国作家J.R.R.托尔金(J.R.R. Tolkien)同名魔幻巨著《指环王》(The Lord of the Rings)改编,并荣获2004年第76届奥斯卡最好影片、最好导演、最好改编剧本、最好剪辑、最好艺术指导、最好打扮设想、最好化装、最好视觉结果、最好音效、最好配乐和最好歌曲等11项大奖。
◎获奖情况
  第76届奥斯卡金像奖 ?(2004)
  最好影片 巴里·M·奥斯本?/?弗兰·威尔士?/?彼得·杰克逊
  最好导演 彼得·杰克逊
  最好改编剧本 弗兰·威尔士?/?彼得·杰克逊?/?菲利帕·鲍恩斯
  最好剪辑 杰米·塞尔柯克
  最好视觉结果 亚历克斯·方克?/?吉姆·瑞吉尔?/?乔·莱特瑞?/?兰德尔·威廉·库克
  最好混音 迈克·亨吉斯?/?哈蒙德·匹克?/?克里斯托弗·博伊斯?/?迈克尔·斯曼外科
  最好艺术指导 丹·汉纳?/?格兰特·梅杰?/?艾伦·李
  最好打扮设想 恩吉拉·迪克森?/?理查德·泰勒
  最好化装 理查德·泰勒?/?彼得·金
  最好原创配乐 霍华德·肖
  最好原创歌曲 霍华德·肖?/?安妮·蓝妮克丝?/?弗兰·威尔士
  
  第61届金球奖 ?(2004)
  电影类最好剧情片
  电影类最好导演 彼得·杰克逊
  电影类最好原创配乐 霍华德·肖
  电影类最好原创歌曲 弗兰·威尔士?/?安妮·蓝妮克丝?/?霍华德·肖
  
  第57届英国电影学院奖 ?(2004)
  电影奖最好影片 巴里·M·奥斯本?/?彼得·杰克逊?/?弗兰·威尔士
  电影奖最好导演(提名) 彼得·杰克逊
  电影奖最好男配角(提名) 伊恩·麦克莱恩
  电影奖最好改编剧本 菲利帕·鲍恩斯?/?彼得·杰克逊?/?弗兰·威尔士
  电影奖最好摄影 安德鲁·莱斯尼
  电影奖最好剪辑(提名) 杰米·塞尔柯克
  电影奖最好化装/发型(提名) 彼得·金?/?彼得·欧文?/?理查德·泰勒
  电影奖最好打扮设想(提名) 恩吉拉·迪克森?/?理查德·泰勒?/?恩吉拉·迪克森?/?理查德·泰勒
  电影奖最好艺术指导(提名) 格兰特·梅杰
  电影奖最好特别视觉结果 吉姆·瑞吉尔?/?兰德尔·威廉·库克?/?乔·莱特瑞?/?亚历克斯·方克
  电影奖最好原创音乐(提名) 霍华德·肖
  电影奖最好音效(提名) 迈克·亨吉斯?/?大卫·法默?/?迈克尔·斯曼外科?/?克里斯托弗·博伊斯?/?哈蒙德·匹克?/?迈克·霍普金斯?/?伊桑·范德莱恩
  电影奖观众挑选奖
  
  第28届日本电影学院奖 ?(2005)
  最好外语片(提名)
  
  第4届美国电影学会奖 ?(2003)
  年度佳片
  1. Video
  2. ID                                       : 1
  3. ID in the original source medium         : 4113 (0x1011)
  4. Format                                   : HEVC
  5. Format/Info                              : High Efficiency Video Coding
  6. Format profile                           : Main [email protected]@High
  7. HDR format                               : SMPTE ST 2086, HDR10 compatible
  8. Codec ID                                 : V_MPEGH/ISO/HEVC
  9. Duration                                 : 2 h 15 min
  10. Bit rate                                 : 62.8 Mb/s
  11. Width                                    : 3 840 pixels
  12. Height                                   : 2 160 pixels
  13. Display aspect ratio                     : 16:9
  14. Frame rate mode                          : Constant
  15. Frame rate                               : 23.976 (24000/1001/189150) FPS
  16. Color space                              : YUV
  17. Chroma subsampling                       : 4:2:0 (Type 2)
  18. Bit depth                                : 10 bits
  19. Bits/(Pixel*Frame)                       : 0.316
  20. Stream size                              : 59.5 GiB (75%)
  21. Title                                    : The.Lord.of.the.Rings.The.Return.Of.The.King.2003.DISC2.EXTENDED.2160p.BluRay.REMUX.HEVC.DTS-HD.MA.TrueHD.7.1.Atmos-FGT
  22. Language                                 : English
  23. Default                                  : No
  24. Forced                                   : No
  25. Color range                              : Limited
  26. Color primaries                          : BT.2020
  27. Transfer characteristics                 : PQ
  28. Matrix coefficients                      : BT.2020 non-constant
  29. Mastering display color primaries        : Display P3
  30. Mastering display luminance              : min: 0.0050 cd/m2, max: 4000 cd/m2
  31. Maximum Content Light Level              : 636 cd/m2
  32. Maximum Frame-Average Light Level        : 103 cd/m2
  33. Original source medium                   : Blu-ray
  34. Audio #1
  35. ID                                       : 2
  36. ID in the original source medium         : 4352 (0x1100)
  37. Format                                   : MLP FBA 16-ch
  38. Format/Info                              : Meridian Lossless Packing FBA with 16-channel presentation
  39. Commercial name                          : Dolby TrueHD with Dolby Atmos
  40. Codec ID                                 : A_TRUEHD
  41. Duration                                 : 2 h 15 min
  42. Bit rate mode                            : Variable
  43. Bit rate                                 : 2 957 kb/s
  44. Maximum bit rate                         : 4 770 kb/s
  45. Channel(s)                               : 8 channels
  46. Channel layout                           : L R C LFE Ls Rs Lb Rb
  47. Sampling rate                            : 48.0 kHz
  48. Frame rate                               : 1 200.000 FPS (40 SPF)
  49. Compression mode                         : Lossless
  50. Stream size                              : 2.80 GiB (4%)
  51. Title                                    : The.Lord.of.the.Rings.The.Return.Of.The.King.2003.DISC2.EXTENDED.2160p.BluRay.REMUX.HEVC.DTS-HD.MA.TrueHD.7.1.Atmos-FGT
  52. Language                                 : English
  53. Default                                  : Yes
  54. Forced                                   : No
  55. Original source medium                   : Blu-ray
  56. Number of dynamic objects                : 11
  57. Bed channel count                        : 1 channel
  58. Bed channel configuration                : LFE
  59. Audio #2
  60. ID                                       : 3
  61. Format                                   : DTS XLL
  62. Format/Info                              : Digital Theater Systems
  63. Commercial name                          : DTS-HD Master Audio
  64. Codec ID                                 : A_DTS
  65. Duration                                 : 2 h 15 min
  66. Bit rate mode                            : Variable
  67. Bit rate                                 : 3 549 kb/s
  68. Channel(s)                               : 8 channels
  69. Channel layout                           : C L R LFE Lb Rb Lss Rss
  70. Sampling rate                            : 48.0 kHz
  71. Frame rate                               : 93.750 FPS (512 SPF)
  72. Bit depth                                : 24 bits
  73. Compression mode                         : Lossless
  74. Stream size                              : 3.36 GiB (4%)
  75. Title                                    : The.Lord.of.the.Rings.The.Return.Of.The.King.2003.DISC2.EXTENDED.2160p.BluRay.REMUX.HEVC.DTS-HD.MA.TrueHD.7.1.Atmos-FGT
  76. Language                                 : English
  77. Default                                  : No
  78. Forced                                   : No
  79. Audio #3
  80. ID                                       : 4
  81. ID in the original source medium         : 4352 (0x1100)
  82. Format                                   : AC-3
  83. Format/Info                              : Audio Coding 3
  84. Commercial name                          : Dolby Digital
  85. Codec ID                                 : A_AC3
  86. Duration                                 : 2 h 15 min
  87. Bit rate mode                            : Constant
  88. Bit rate                                 : 448 kb/s
  89. Channel(s)                               : 6 channels
  90. Channel layout                           : L R C LFE Ls Rs
  91. Sampling rate                            : 48.0 kHz
  92. Frame rate                               : 31.250 FPS (1536 SPF)
  93. Compression mode                         : Lossy
  94. Stream size                              : 435 MiB (1%)
  95. Title                                    : The.Lord.of.the.Rings.The.Return.Of.The.King.2003.DISC2.EXTENDED.2160p.BluRay.REMUX.HEVC.DTS-HD.MA.TrueHD.7.1.Atmos-FGT
  96. Language                                 : English
  97. Service kind                             : Complete Main
  98. Default                                  : No
  99. Forced                                   : No
  100. Original source medium                   : Blu-ray
  101. Audio #4
  102. ID                                       : 5
  103. ID in the original source medium         : 4353 (0x1101)
  104. Format                                   : DTS ES XXCH XLL
  105. Format/Info                              : Digital Theater Systems
  106. Commercial name                          : DTS-HD Master Audio
  107. Codec ID                                 : A_DTS
  108. Duration                                 : 2 h 15 min
  109. Bit rate mode                            : Variable
  110. Bit rate                                 : 2 624 kb/s
  111. Channel(s)                               : 7 channels
  112. Channel layout                           : C L R Ls Rs LFE Cb
  113. Sampling rate                            : 48.0 kHz
  114. Frame rate                               : 93.750 FPS (512 SPF)
  115. Bit depth                                : 16 bits
  116. Compression mode                         : Lossless
  117. Stream size                              : 2.49 GiB (3%)
  118. Title                                    : The.Lord.of.the.Rings.The.Return.Of.The.King.2003.DISC2.EXTENDED.2160p.BluRay.REMUX.HEVC.DTS-HD.MA.TrueHD.7.1.Atmos-FGT
  119. Language                                 : French
  120. Default                                  : No
  121. Forced                                   : No
  122. Original source medium                   : Blu-ray
  123. Audio #5
  124. ID                                       : 6
  125. ID in the original source medium         : 4354 (0x1102)
  126. Format                                   : DTS ES XXCH XLL
  127. Format/Info                              : Digital Theater Systems
  128. Commercial name                          : DTS-HD Master Audio
  129. Codec ID                                 : A_DTS
  130. Duration                                 : 2 h 15 min
  131. Bit rate mode                            : Variable
  132. Bit rate                                 : 2 548 kb/s
  133. Channel(s)                               : 7 channels
  134. Channel layout                           : C L R Ls Rs LFE Cb
  135. Sampling rate                            : 48.0 kHz
  136. Frame rate                               : 93.750 FPS (512 SPF)
  137. Bit depth                                : 16 bits
  138. Compression mode                         : Lossless
  139. Delay relative to video                  : 1 s 1 ms
  140. Stream size                              : 2.41 GiB (3%)
  141. Title                                    : The.Lord.of.the.Rings.The.Return.Of.The.King.2003.DISC2.EXTENDED.2160p.BluRay.REMUX.HEVC.DTS-HD.MA.TrueHD.7.1.Atmos-FGT
  142. Language                                 : German
  143. Default                                  : No
  144. Forced                                   : No
  145. Original source medium                   : Blu-ray
  146. Audio #6
  147. ID                                       : 7
  148. ID in the original source medium         : 4355 (0x1103)
  149. Format                                   : DTS XLL
  150. Format/Info                              : Digital Theater Systems
  151. Commercial name                          : DTS-HD Master Audio
  152. Codec ID                                 : A_DTS
  153. Duration                                 : 2 h 15 min
  154. Bit rate mode                            : Variable
  155. Bit rate                                 : 2 353 kb/s
  156. Channel(s)                               : 6 channels
  157. Channel layout                           : C L R Ls Rs LFE
  158. Sampling rate                            : 48.0 kHz
  159. Frame rate                               : 93.750 FPS (512 SPF)
  160. Bit depth                                : 16 bits
  161. Compression mode                         : Lossless
  162. Stream size                              : 2.23 GiB (3%)
  163. Title                                    : The.Lord.of.the.Rings.The.Return.Of.The.King.2003.DISC2.EXTENDED.2160p.BluRay.REMUX.HEVC.DTS-HD.MA.TrueHD.7.1.Atmos-FGT
  164. Language                                 : Italian
  165. Default                                  : No
  166. Forced                                   : No
  167. Original source medium                   : Blu-ray
  168. Audio #7
  169. ID                                       : 8
  170. ID in the original source medium         : 4356 (0x1104)
  171. Format                                   : DTS XLL
  172. Format/Info                              : Digital Theater Systems
  173. Commercial name                          : DTS-HD Master Audio
  174. Codec ID                                 : A_DTS
  175. Duration                                 : 2 h 15 min
  176. Bit rate mode                            : Variable
  177. Bit rate                                 : 2 282 kb/s
  178. Channel(s)                               : 6 channels
  179. Channel layout                           : C L R Ls Rs LFE
  180. Sampling rate                            : 48.0 kHz
  181. Frame rate                               : 93.750 FPS (512 SPF)
  182. Bit depth                                : 16 bits
  183. Compression mode                         : Lossless
  184. Stream size                              : 2.16 GiB (3%)
  185. Title                                    : The.Lord.of.the.Rings.The.Return.Of.The.King.2003.DISC2.EXTENDED.2160p.BluRay.REMUX.HEVC.DTS-HD.MA.TrueHD.7.1.Atmos-FGT
  186. Language                                 : Spanish
  187. Default                                  : No
  188. Forced                                   : No
  189. Original source medium                   : Blu-ray
  190. Audio #8
  191. ID                                       : 9
  192. ID in the original source medium         : 4357 (0x1105)
  193. Format                                   : DTS XLL
  194. Format/Info                              : Digital Theater Systems
  195. Commercial name                          : DTS-HD Master Audio
  196. Codec ID                                 : A_DTS
  197. Duration                                 : 2 h 15 min
  198. Bit rate mode                            : Variable
  199. Bit rate                                 : 3 820 kb/s
  200. Channel(s)                               : 6 channels
  201. Channel layout                           : C L R Ls Rs LFE
  202. Sampling rate                            : 48.0 kHz
  203. Frame rate                               : 93.750 FPS (512 SPF)
  204. Bit depth                                : 24 bits
  205. Compression mode                         : Lossless
  206. Delay relative to video                  : 1 s 1 ms
  207. Stream size                              : 3.62 GiB (5%)
  208. Title                                    : The.Lord.of.the.Rings.The.Return.Of.The.King.2003.DISC2.EXTENDED.2160p.BluRay.REMUX.HEVC.DTS-HD.MA.TrueHD.7.1.Atmos-FGT
  209. Language                                 : Japanese
  210. Default                                  : No
  211. Forced                                   : No
  212. Original source medium                   : Blu-ray
  213. Text #1
  214. ID                                       : 10
  215. Format                                   : UTF-8
  216. Codec ID                                 : S_TEXT/UTF8
  217. Codec ID/Info                            : UTF-8 Plain Text
  218. Duration                                 : 1 h 58 min
  219. Bit rate                                 : 18 b/s
  220. Count of elements                        : 693
  221. Stream size                              : 16.3 KiB (0%)
  222. Title                                    : English-SRT
  223. Language                                 : English
  224. Default                                  : Yes
  225. Forced                                   : No
  226. Text #2
  227. ID                                       : 11
  228. ID in the original source medium         : 4768 (0x12A0)
  229. Format                                   : PGS
  230. Muxing mode                              : zlib
  231. Codec ID                                 : S_HDMV/PGS
  232. Codec ID/Info                            : Picture based subtitle format used on BDs/HD-DVDs
  233. Duration                                 : 1 h 58 min
  234. Bit rate                                 : 13.6 kb/s
  235. Count of elements                        : 1730
  236. Stream size                              : 11.6 MiB (0%)
  237. Title                                    : English-PGS
  238. Language                                 : English
  239. Default                                  : No
  240. Forced                                   : No
  241. Original source medium                   : Blu-ray
  242. Text #3
  243. ID                                       : 12
  244. ID in the original source medium         : 4769 (0x12A1)
  245. Format                                   : PGS
  246. Muxing mode                              : zlib
  247. Codec ID                                 : S_HDMV/PGS
  248. Codec ID/Info                            : Picture based subtitle format used on BDs/HD-DVDs
  249. Duration                                 : 2 h 15 min
  250. Bit rate                                 : 8 663 b/s
  251. Count of elements                        : 1214
  252. Stream size                              : 8.38 MiB (0%)
  253. Title                                    : French-PGS
  254. Language                                 : French
  255. Default                                  : No
  256. Forced                                   : No
  257. Original source medium                   : Blu-ray
  258. Text #4
  259. ID                                       : 13
  260. ID in the original source medium         : 4770 (0x12A2)
  261. Format                                   : PGS
  262. Muxing mode                              : zlib
  263. Codec ID                                 : S_HDMV/PGS
  264. Codec ID/Info                            : Picture based subtitle format used on BDs/HD-DVDs
  265. Duration                                 : 1 h 59 min
  266. Bit rate                                 : 17.2 kb/s
  267. Count of elements                        : 1674
  268. Stream size                              : 14.7 MiB (0%)
  269. Title                                    : German-PGS
  270. Language                                 : German
  271. Default                                  : No
  272. Forced                                   : No
  273. Original source medium                   : Blu-ray
  274. Text #5
  275. ID                                       : 14
  276. ID in the original source medium         : 4771 (0x12A3)
  277. Format                                   : PGS
  278. Muxing mode                              : zlib
  279. Codec ID                                 : S_HDMV/PGS
  280. Codec ID/Info                            : Picture based subtitle format used on BDs/HD-DVDs
  281. Duration                                 : 1 h 58 min
  282. Bit rate                                 : 14.2 kb/s
  283. Count of elements                        : 1748
  284. Stream size                              : 12.1 MiB (0%)
  285. Title                                    : Italian-PGS
  286. Language                                 : Italian
  287. Default                                  : No
  288. Forced                                   : No
  289. Original source medium                   : Blu-ray
  290. Text #6
  291. ID                                       : 15
  292. ID in the original source medium         : 4772 (0x12A4)
  293. Format                                   : PGS
  294. Muxing mode                              : zlib
  295. Codec ID                                 : S_HDMV/PGS
  296. Codec ID/Info                            : Picture based subtitle format used on BDs/HD-DVDs
  297. Duration                                 : 2 h 15 min
  298. Bit rate                                 : 10.1 kb/s
  299. Count of elements                        : 1412
  300. Stream size                              : 9.75 MiB (0%)
  301. Title                                    : Spanish-PGS
  302. Language                                 : Spanish
  303. Default                                  : No
  304. Forced                                   : No
  305. Original source medium                   : Blu-ray
  306. Text #7
  307. ID                                       : 16
  308. ID in the original source medium         : 4773 (0x12A5)
  309. Format                                   : PGS
  310. Muxing mode                              : zlib
  311. Codec ID                                 : S_HDMV/PGS
  312. Codec ID/Info                            : Picture based subtitle format used on BDs/HD-DVDs
  313. Duration                                 : 1 h 52 min
  314. Bit rate                                 : 11.1 kb/s
  315. Count of elements                        : 1184
  316. Stream size                              : 8.94 MiB (0%)
  317. Title                                    : Dutch-PGS
  318. Language                                 : Dutch
  319. Default                                  : No
  320. Forced                                   : No
  321. Original source medium                   : Blu-ray
  322. Text #8
  323. ID                                       : 17
  324. ID in the original source medium         : 4774 (0x12A6)
  325. Format                                   : PGS
  326. Muxing mode                              : zlib
  327. Codec ID                                 : S_HDMV/PGS
  328. Codec ID/Info                            : Picture based subtitle format used on BDs/HD-DVDs
  329. Duration                                 : 1 h 58 min
  330. Bit rate                                 : 10.1 kb/s
  331. Count of elements                        : 1406
  332. Stream size                              : 8.57 MiB (0%)
  333. Title                                    : Chinese-PGS
  334. Language                                 : Chinese
  335. Default                                  : No
  336. Forced                                   : No
  337. Original source medium                   : Blu-ray
  338. Text #9
  339. ID                                       : 18
  340. ID in the original source medium         : 4775 (0x12A7)
  341. Format                                   : PGS
  342. Muxing mode                              : zlib
  343. Codec ID                                 : S_HDMV/PGS
  344. Codec ID/Info                            : Picture based subtitle format used on BDs/HD-DVDs
  345. Duration                                 : 1 h 58 min
  346. Bit rate                                 : 10.3 kb/s
  347. Count of elements                        : 1406
  348. Stream size                              : 8.74 MiB (0%)
  349. Title                                    : Chinese-PGS
  350. Language                                 : Chinese
  351. Default                                  : No
  352. Forced                                   : No
  353. Original source medium                   : Blu-ray
  354. Text #10
  355. ID                                       : 19
  356. ID in the original source medium         : 4776 (0x12A8)
  357. Format                                   : PGS
  358. Muxing mode                              : zlib
  359. Codec ID                                 : S_HDMV/PGS
  360. Codec ID/Info                            : Picture based subtitle format used on BDs/HD-DVDs
  361. Duration                                 : 1 h 58 min
  362. Bit rate                                 : 9 667 b/s
  363. Count of elements                        : 1406
  364. Stream size                              : 8.22 MiB (0%)
  365. Title                                    : Korean-PGS
  366. Language                                 : Korean
  367. Default                                  : No
  368. Forced                                   : No
  369. Original source medium                   : Blu-ray
  370. Text #11
  371. ID                                       : 20
  372. ID in the original source medium         : 4777 (0x12A9)
  373. Format                                   : PGS
  374. Muxing mode                              : zlib
  375. Codec ID                                 : S_HDMV/PGS
  376. Codec ID/Info                            : Picture based subtitle format used on BDs/HD-DVDs
  377. Duration                                 : 2 h 15 min
  378. Bit rate                                 : 9 490 b/s
  379. Count of elements                        : 1264
  380. Stream size                              : 9.18 MiB (0%)
  381. Title                                    : Spanish-PGS
  382. Language                                 : Spanish
  383. Default                                  : No
  384. Forced                                   : No
  385. Original source medium                   : Blu-ray
  386. Text #12
  387. ID                                       : 21
  388. ID in the original source medium         : 4778 (0x12AA)
  389. Format                                   : PGS
  390. Muxing mode                              : zlib
  391. Codec ID                                 : S_HDMV/PGS
  392. Codec ID/Info                            : Picture based subtitle format used on BDs/HD-DVDs
  393. Duration                                 : 1 h 58 min
  394. Bit rate                                 : 10.3 kb/s
  395. Count of elements                        : 1398
  396. Stream size                              : 8.76 MiB (0%)
  397. Title                                    : Czech-PGS
  398. Language                                 : Czech
  399. Default                                  : No
  400. Forced                                   : No
  401. Original source medium                   : Blu-ray
  402. Text #13
  403. ID                                       : 22
  404. ID in the original source medium         : 4779 (0x12AB)
  405. Format                                   : PGS
  406. Muxing mode                              : zlib
  407. Codec ID                                 : S_HDMV/PGS
  408. Codec ID/Info                            : Picture based subtitle format used on BDs/HD-DVDs
  409. Duration                                 : 2 h 15 min
  410. Bit rate                                 : 8 625 b/s
  411. Count of elements                        : 998
  412. Stream size                              : 8.35 MiB (0%)
  413. Title                                    : Danish-PGS
  414. Language                                 : Danish
  415. Default                                  : No
  416. Forced                                   : No
  417. Original source medium                   : Blu-ray
  418. Text #14
  419. ID                                       : 23
  420. ID in the original source medium         : 4780 (0x12AC)
  421. Format                                   : PGS
  422. Muxing mode                              : zlib
  423. Codec ID                                 : S_HDMV/PGS
  424. Codec ID/Info                            : Picture based subtitle format used on BDs/HD-DVDs
  425. Duration                                 : 2 h 15 min
  426. Bit rate                                 : 9 066 b/s
  427. Count of elements                        : 1286
  428. Stream size                              : 8.77 MiB (0%)
  429. Title                                    : Finnnish-PGS
  430. Language                                 : Finnish
  431. Default                                  : No
  432. Forced                                   : No
  433. Original source medium                   : Blu-ray
  434. Text #15
  435. ID                                       : 24
  436. ID in the original source medium         : 4781 (0x12AD)
  437. Format                                   : PGS
  438. Muxing mode                              : zlib
  439. Codec ID                                 : S_HDMV/PGS
  440. Codec ID/Info                            : Picture based subtitle format used on BDs/HD-DVDs
  441. Duration                                 : 2 h 15 min
  442. Bit rate                                 : 10.9 kb/s
  443. Count of elements                        : 1408
  444. Stream size                              : 10.5 MiB (0%)
  445. Title                                    : Greek-PGS
  446. Language                                 : Greek
  447. Default                                  : No
  448. Forced                                   : No
  449. Original source medium                   : Blu-ray
  450. Text #16
  451. ID                                       : 25
  452. ID in the original source medium         : 4782 (0x12AE)
  453. Format                                   : PGS
  454. Muxing mode                              : zlib
  455. Codec ID                                 : S_HDMV/PGS
  456. Codec ID/Info                            : Picture based subtitle format used on BDs/HD-DVDs
  457. Duration                                 : 2 h 15 min
  458. Bit rate                                 : 8 194 b/s
  459. Count of elements                        : 950
  460. Stream size                              : 7.93 MiB (0%)
  461. Title                                    : Norwegian-PGS
  462. Language                                 : Norwegian
  463. Default                                  : No
  464. Forced                                   : No
  465. Original source medium                   : Blu-ray
  466. Text #17
  467. ID                                       : 26
  468. ID in the original source medium         : 4783 (0x12AF)
  469. Format                                   : PGS
  470. Muxing mode                              : zlib
  471. Codec ID                                 : S_HDMV/PGS
  472. Codec ID/Info                            : Picture based subtitle format used on BDs/HD-DVDs
  473. Duration                                 : 1 h 58 min
  474. Bit rate                                 : 10.5 kb/s
  475. Count of elements                        : 1332
  476. Stream size                              : 8.92 MiB (0%)
  477. Title                                    : Polish-PGS
  478. Language                                 : Polish
  479. Default                                  : No
  480. Forced                                   : No
  481. Original source medium                   : Blu-ray
  482. Text #18
  483. ID                                       : 27
  484. ID in the original source medium         : 4784 (0x12B0)
  485. Format                                   : PGS
  486. Muxing mode                              : zlib
  487. Codec ID                                 : S_HDMV/PGS
  488. Codec ID/Info                            : Picture based subtitle format used on BDs/HD-DVDs
  489. Duration                                 : 2 h 15 min
  490. Bit rate                                 : 8 798 b/s
  491. Count of elements                        : 966
  492. Stream size                              : 8.51 MiB (0%)
  493. Title                                    : Swedish-PGS
  494. Language                                 : Swedish
  495. Default                                  : No
  496. Forced                                   : No
  497. Original source medium                   : Blu-ray
  498. Text #19
  499. ID                                       : 28
  500. ID in the original source medium         : 4785 (0x12B1)
  501. Format                                   : PGS
  502. Muxing mode                              : zlib
  503. Codec ID                                 : S_HDMV/PGS
  504. Codec ID/Info                            : Picture based subtitle format used on BDs/HD-DVDs
  505. Duration                                 : 1 h 52 min
  506. Bit rate                                 : 9 746 b/s
  507. Count of elements                        : 1278
  508. Stream size                              : 7.87 MiB (0%)
  509. Title                                    : Thai-PGS
  510. Language                                 : Thai
  511. Default                                  : No
  512. Forced                                   : No
  513. Original source medium                   : Blu-ray
  514. Text #20
  515. ID                                       : 29
  516. ID in the original source medium         : 4786 (0x12B2)
  517. Format                                   : PGS
  518. Muxing mode                              : zlib
  519. Codec ID                                 : S_HDMV/PGS
  520. Codec ID/Info                            : Picture based subtitle format used on BDs/HD-DVDs
  521. Duration                                 : 10 min 12 s
  522. Bit rate                                 : 630 b/s
  523. Count of elements                        : 6
  524. Stream size                              : 47.1 KiB (0%)
  525. Title                                    : French-FORCED-PGS
  526. Language                                 : French
  527. Default                                  : No
  528. Forced                                   : No
  529. Original source medium                   : Blu-ray
  530. Text #21
  531. ID                                       : 30
  532. ID in the original source medium         : 4787 (0x12B3)
  533. Format                                   : PGS
  534. Muxing mode                              : zlib
  535. Codec ID                                 : S_HDMV/PGS
  536. Codec ID/Info                            : Picture based subtitle format used on BDs/HD-DVDs
  537. Duration                                 : 2 s 941 ms
  538. Bit rate                                 : 41.6 kb/s
  539. Count of elements                        : 2
  540. Stream size                              : 15.0 KiB (0%)
  541. Title                                    : German-FORCED-PGS
  542. Language                                 : German
  543. Default                                  : No
  544. Forced                                   : No
  545. Original source medium                   : Blu-ray
  546. Text #22
  547. ID                                       : 31
  548. ID in the original source medium         : 4788 (0x12B4)
  549. Format                                   : PGS
  550. Muxing mode                              : zlib
  551. Codec ID                                 : S_HDMV/PGS
  552. Codec ID/Info                            : Picture based subtitle format used on BDs/HD-DVDs
  553. Duration                                 : 2 s 941 ms
  554. Bit rate                                 : 41.0 kb/s
  555. Count of elements                        : 2
  556. Stream size                              : 14.7 KiB (0%)
  557. Title                                    : Italian-FORCED-PGS
  558. Language                                 : Italian
  559. Default                                  : No
  560. Forced                                   : No
  561. Original source medium                   : Blu-ray
  562. Text #23
  563. ID                                       : 32
  564. ID in the original source medium         : 4789 (0x12B5)
  565. Format                                   : PGS
  566. Muxing mode                              : zlib
  567. Codec ID                                 : S_HDMV/PGS
  568. Codec ID/Info                            : Picture based subtitle format used on BDs/HD-DVDs
  569. Duration                                 : 2 s 858 ms
  570. Bit rate                                 : 42.0 kb/s
  571. Count of elements                        : 2
  572. Stream size                              : 14.6 KiB (0%)
  573. Title                                    : Spanish-FORCED-PGS
  574. Language                                 : Spanish
  575. Default                                  : No
  576. Forced                                   : No
  577. Original source medium                   : Blu-ray
  578. Text #24
  579. ID                                       : 33
  580. ID in the original source medium         : 4790 (0x12B6)
  581. Format                                   : PGS
  582. Muxing mode                              : zlib
  583. Codec ID                                 : S_HDMV/PGS
  584. Codec ID/Info                            : Picture based subtitle format used on BDs/HD-DVDs
  585. Duration                                 : 1 h 58 min
  586. Bit rate                                 : 10.9 kb/s
  587. Count of elements                        : 1316
  588. Stream size                              : 9.30 MiB (0%)
  589. Title                                    : Japanese-PGS
  590. Language                                 : Japanese
  591. Default                                  : No
  592. Forced                                   : No
  593. Original source medium                   : Blu-ray
  594. Text #25
  595. ID                                       : 34
  596. ID in the original source medium         : 4791 (0x12B7)
  597. Format                                   : PGS
  598. Muxing mode                              : zlib
  599. Codec ID                                 : S_HDMV/PGS
  600. Codec ID/Info                            : Picture based subtitle format used on BDs/HD-DVDs
  601. Duration                                 : 1 h 53 min
  602. Bit rate                                 : 1 607 b/s
  603. Count of elements                        : 138
  604. Stream size                              : 1.31 MiB (0%)
  605. Title                                    : Japanese-FORCED-PGS
  606. Language                                 : Japanese
  607. Default                                  : No
  608. Forced                                   : No
  609. Original source medium                   : Blu-ray
  610. Menu
  611. 00:00:00.000                             : en:Chapter 01
  612. 00:01:03.480                             : en:Chapter 02
  613. 00:10:11.110                             : en:Chapter 03
  614. 00:12:01.220                             : en:Chapter 04
  615. 00:12:37.631                             : en:Chapter 05
  616. 00:14:11.058                             : en:Chapter 06
  617. 00:15:18.083                             : en:Chapter 07
  618. 00:21:19.945                             : en:Chapter 08
  619. 00:22:25.302                             : en:Chapter 09
  620. 00:24:50.322                             : en:Chapter 10
  621. 00:29:04.367                             : en:Chapter 11
  622. 00:31:11.828                             : en:Chapter 12
  623. 00:36:06.998                             : en:Chapter 13
  624. 00:37:37.421                             : en:Chapter 14
  625. 00:39:23.569                             : en:Chapter 15
  626. 00:40:16.163                             : en:Chapter 16
  627. 00:41:00.416                             : en:Chapter 17
  628. 00:43:36.113                             : en:Chapter 18
  629. 00:45:38.694                             : en:Chapter 19
  630. 00:46:45.761                             : en:Chapter 20
  631. 00:49:01.730                             : en:Chapter 21
  632. 00:49:53.824                             : en:Chapter 22
  633. 00:56:49.364                             : en:Chapter 23
  634. 00:58:32.091                             : en:Chapter 24
  635. 01:00:00.888                             : en:Chapter 25
  636. 01:00:51.105                             : en:Chapter 26
  637. 01:04:32.785                             : en:Chapter 27
  638. 01:08:44.411                             : en:Chapter 28
  639. 01:12:00.149                             : en:Chapter 29
  640. 01:15:34.071                             : en:Chapter 30
  641. 01:17:47.287                             : en:Chapter 31
  642. 01:18:49.641                             : en:Chapter 32
  643. 01:20:46.091                             : en:Chapter 33
  644. 01:21:19.916                             : en:Chapter 34
  645. 01:26:58.671                             : en:Chapter 35
  646. 01:29:12.055                             : en:Chapter 36
  647. 01:32:41.430                             : en:Chapter 37
  648. 01:35:04.490                             : en:Chapter 38
  649. 01:39:57.157                             : en:Chapter 39
  650. 01:44:39.106                             : en:Chapter 40
  651. 01:53:58.081                             : en:Chapter 41
  652. 02:05:05.247                             : en:Chapter 42
复制代码



                                       
                                       

                                       
                                       
                                       




指环王3:王者无敌/指环王3:国王归来 The.Lord.of.the.Rings.The.Return.Of.The.King.2003.DISC2.EXTENDED.2160p.BluRay.REMUX.HEVC.DTS-HD.MA.TrueHD.7.1.Atmos-FGT 79.16GB

The.Lord.of.the.Rings.The.Return.Of.The.King.2003.DISC2.EXTENDED.2160p.BluRay.RE.atmos-fgt

198.78 KB, 下载次数: 26, 下载积分: 蓝光币 -2

回复

使用道具 举报

懒得打字嘛,点击右侧快捷回复 【右侧内容,后台自定义】
您需要登录后才可以回帖 登录 | 立即加入

本版积分规则

Archiver|小黑屋| 蓝光电影网 |网站地图

Copyright © 2021 Comsenz Inc. Powered by 蓝光电影网

蓝光电影网

本站内容由用户自主分享和转载自互联网,转载目的在于传递更多信息,并不代表本网赞同其观点和对其真实性负责。

如有侵权、违反国家法律政策行为,请联系我们,我们会第一时间及时清除和处理!

举报反馈邮箱:[email protected]

快速回复 返回顶部 返回列表