找回密码

蓝光电影网

查看: 67|回复: 0

[2160p] 仲夏夜惊魂/仲夏 Midsommar.2019.DC.2160p.BluRay.x265.10bit.SDR.DTS-HD.MA.5.1-SWTYBLZ 46.07GB

[复制链接]
蓝光币
1084
发表于 2020-8-4 09:47:39 | 显示全部楼层 |阅读模式


◎译  名 仲夏夜惊魂 / 仲夏 / 仲夏噩梦 / 仲夏节 / 仲夏魇(台)
◎片  名 Midsommar
◎年  代 2019
◎产  地 美国 / 瑞典 / 匈牙利
◎类  别 可骇
◎语  言 英语 / 瑞典语
◎上映日期 2019-07-03(美国)
◎IMDb评分  7.1/10 from 166296 users
◎IMDb链接  https://www.imdb.com/title/tt8772262
◎豆瓣评分 6.6/10 from 45443 users
◎豆瓣链接 https://movie.douban.com/subject/30288638/
◎片  长 147分钟
◎导  演 阿里·艾斯特 Ari Aster
◎编  剧 阿里·艾斯特 Ari Aster
◎主  演 弗洛伦斯·皮尤 Florence Pugh
       杰克·莱诺 Jack Reynor
       维尔赫尔姆·布洛姆根 Vilhelm Blomgren
       威廉·杰克森·哈珀 William Jackson Harper
       威尔·保尔特 Will Poulter
       埃洛拉·托尔基亚 Ellora Torchia
       阿奇·马德基 Archie Madekwe
       亨里克·诺伦 Henrik Norlén
       贡内尔·弗雷德 Gunnel Fred
       伊莎贝尔·古瑞 Isabelle Grill
       朱莉娅·拉格纳森 Julia Ragnarsson
       伯恩·安德森 Bj?rn Andrésen
       安娜·阿斯特罗姆 Anna ?str?m
       丽芙·姆琼斯 Liv Mj?nes
       路易丝·彼得霍夫 Louise Peterhoff
       安琪·拉尔森 Anki Larsson
       拉斯·瓦林格 Lars V?ringer
       马茨·布洛姆格伦 Mats Blomgren
       安德斯·贝克曼 Anders Beckman

◎标  签 惊悚 | 邪教 | 可骇 | 宗教 | 美国 | 悬疑 | 2019 | CULT
◎简  介

  
  丹妮因姐姐及怙恃意外自杀而日渐解体,男友克里斯为了抚慰丹妮而约请丹妮与他的好友来到瑞典的一座偏僻村落加入了一个当地的夏日活动,以令她?怀姐姐及怙恃身亡的阴影。
  但活动却持续不断地发生怪事,而工作也朝着暴力、诡异的偏向成长着,是以他们决议摸索这里去消除迷惑。却发现这些美好的丰收背后与他们所信仰的宗教有关。工作的成长亦令丹妮的心理阴影日渐扩大,众人的情感亦起头兴奋及解体起来,堕入割裂的场面??强逼着他们做出终极的决定:居留或献祭??
◎获奖情况  
  第91届美国国家批评协会奖(2019)
  十佳自力电影
  第25届美国批评家挑选电影奖(2020)
  最好科幻/可骇片(提名)
  第35届美国自力精神奖(2020)
  最好摄影(提名)
  第29届哥谭自力电影奖(2019)
  最好女演员(提名) 弗洛伦丝·皮尤
  最好剧本(提名) 阿里·艾斯特
  第54届美国国家影评人协会奖(2020)
  最好女配角(提名) 弗洛伦丝·皮尤
  第40届伦敦影评人协会奖(2020)
  年度电影(提名)
  年度女配角(提名) 弗洛伦丝·皮尤
  年度英国/爱尔兰女演员(提名) 弗洛伦丝·皮尤
  第32届芝加哥影评人协会奖(2019)
  最好视觉结果(提名)
  第13届底特律影评人协会奖(2019)
  最好新人 弗洛伦丝·皮尤
  第23届美国在线影评人协会奖(2020)
  最好女配角(提名) 弗洛伦丝·皮尤
  1. Video
  2. ID                                       : 1
  3. Format                                   : HEVC
  4. Format/Info                              : High Efficiency Video Coding
  5. Format profile                           : Main [email protected]@High
  6. Codec ID                                 : V_MPEGH/ISO/HEVC
  7. Duration                                 : 2 h 50 min
  8. Bit rate                                 : 35.3 Mb/s
  9. Width                                    : 3 840 pixels
  10. Height                                   : 1 922 pixels
  11. Display aspect ratio                     : 1.998
  12. Frame rate mode                          : Constant
  13. Frame rate                               : 23.976 (24000/1001/189150) FPS
  14. Color space                              : YUV
  15. Chroma subsampling                       : 4:2:0
  16. Bit depth                                : 10 bits
  17. Bits/(Pixel*Frame)                       : 0.200
  18. Stream size                              : 42.0 GiB (91%)
  19. Title                                    : Midsommar.2019.DC.2160p.BluRay.x265.10bit.SDR.DTS-HD.MA.5.1-SWTYBLZ
  20. Writing library                          : x265 3.0ed72af837053:[Windows][GCC 8.2.0][64 bit] 10bit
  21. Encoding settings                        : cpuid=1111039 / frame-threads=6 / numa-pools=40 / wpp / no-pmode / no-pme / no-psnr / no-ssim / log-level=2 / input-csp=1 / input-res=3840x1922 / interlace=0 / total-frames=244930 / level-idc=51 / high-tier=1 / uhd-bd=0 / ref=3 / no-allow-non-conformance / repeat-headers / annexb / aud / hrd / info / hash=0 / no-temporal-layers / no-open-gop / min-keyint=1 / keyint=24 / gop-lookahead=0 / bframes=4 / b-adapt=2 / b-pyramid / bframe-bias=0 / rc-lookahead=25 / lookahead-slices=4 / scenecut=40 / radl=0 / no-splice / no-intra-refresh / ctu=64 / min-cu-size=8 / no-rect / no-amp / max-tu-size=32 / tu-inter-depth=1 / tu-intra-depth=1 / limit-tu=0 / rdoq-level=0 / dynamic-rd=0.00 / no-ssim-rd / signhide / no-tskip / nr-intra=0 / nr-inter=0 / no-constrained-intra / strong-intra-smoothing / max-merge=2 / limit-refs=3 / no-limit-modes / me=1 / subme=2 / merange=57 / temporal-mvp / weightp / no-weightb / no-analyze-src-pics / deblock=0:0 / no-sao / no-sao-non-deblock / rd=3 / no-early-skip / rskip / no-fast-intra / no-tskip-fast / no-cu-lossless / no-b-intra / no-splitrd-skip / rdpenalty=0 / psy-rd=2.00 / psy-rdoq=0.00 / no-rd-refine / no-lossless / cbqpoffs=0 / crqpoffs=0 / rc=crf / crf=16.0 / qcomp=0.60 / qpstep=4 / stats-write=0 / stats-read=0 / vbv-maxrate=160000 / vbv-bufsize=160000 / vbv-init=0.9 / crf-max=0.0 / crf-min=0.0 / ipratio=1.40 / pbratio=1.30 / aq-mode=1 / aq-strength=1.00 / cutree / zone-count=0 / no-strict-cbr / qg-size=32 / no-rc-grain / qpmax=69 / qpmin=0 / no-const-vbv / sar=1 / overscan=0 / videoformat=5 / range=0 / colorprim=2 / transfer=2 / colormatrix=2 / chromaloc=0 / display-window=0 / max-cll=0,0 / min-luma=0 / max-luma=1023 / log2-max-poc-lsb=8 / vui-timing-info / vui-hrd-info / slices=1 / opt-qp-pps / opt-ref-list-length-pps / no-multi-pass-opt-rps / scenecut-bias=0.05 / no-opt-cu-delta-qp / no-aq-motion / no-hdr / no-hdr-opt / no-dhdr10-opt / no-idr-recovery-sei / analysis-reuse-level=5 / scale-factor=0 / refine-intra=0 / refine-inter=0 / refine-mv=0 / refine-ctu-distortion=0 / no-limit-sao / ctu-info=0 / no-lowpass-dct / refine-analysis-type=0 / copy-pic=1 / max-ausize-factor=1.0 / no-dynamic-refine / no-single-sei / no-hevc-aq / qp-adaptation-range=1.00
  22. Language                                 : English
  23. Default                                  : Yes
  24. Forced                                   : No
  25. Audio #1
  26. ID                                       : 2
  27. ID in the original source medium         : 4352 (0x1100)
  28. Format                                   : DTS XLL
  29. Format/Info                              : Digital Theater Systems
  30. Commercial name                          : DTS-HD Master Audio
  31. Codec ID                                 : A_DTS
  32. Duration                                 : 2 h 50 min
  33. Bit rate mode                            : Variable
  34. Bit rate                                 : 2 662 kb/s
  35. Channel(s)                               : 6 channels
  36. Channel layout                           : C L R Ls Rs LFE
  37. Sampling rate                            : 48.0 kHz
  38. Frame rate                               : 93.750 FPS (512 SPF)
  39. Bit depth                                : 24 bits
  40. Compression mode                         : Lossless
  41. Stream size                              : 3.17 GiB (7%)
  42. Title                                    : Midsommar.2019.DC.2160p.BluRay.x265.10bit.SDR.DTS-HD.MA.5.1-SWTYBLZ
  43. Language                                 : English
  44. Default                                  : Yes
  45. Forced                                   : No
  46. Original source medium                   : Blu-ray
  47. Audio #2
  48. ID                                       : 3
  49. Format                                   : AC-3
  50. Format/Info                              : Audio Coding 3
  51. Commercial name                          : Dolby Digital
  52. Codec ID                                 : A_AC3
  53. Duration                                 : 2 h 50 min
  54. Bit rate mode                            : Constant
  55. Bit rate                                 : 640 kb/s
  56. Channel(s)                               : 6 channels
  57. Channel layout                           : L R C LFE Ls Rs
  58. Sampling rate                            : 48.0 kHz
  59. Frame rate                               : 31.250 FPS (1536 SPF)
  60. Bit depth                                : 16 bits
  61. Compression mode                         : Lossy
  62. Stream size                              : 779 MiB (2%)
  63. Title                                    : Midsommar.2019.DC.2160p.BluRay.x265.10bit.SDR.DTS-HD.MA.5.1-SWTYBLZ
  64. Language                                 : English
  65. Service kind                             : Complete Main
  66. Default                                  : No
  67. Forced                                   : No
  68. Text #1
  69. ID                                       : 4
  70. Format                                   : UTF-8
  71. Codec ID                                 : S_TEXT/UTF8
  72. Codec ID/Info                            : UTF-8 Plain Text
  73. Duration                                 : 2 h 34 min
  74. Bit rate                                 : 40 b/s
  75. Count of elements                        : 1424
  76. Stream size                              : 45.6 KiB (0%)
  77. Title                                    : English-SRT
  78. Language                                 : English
  79. Default                                  : Yes
  80. Forced                                   : No
  81. Text #2
  82. ID                                       : 5
  83. ID in the original source medium         : 4768 (0x12A0)
  84. Format                                   : PGS
  85. Muxing mode                              : zlib
  86. Codec ID                                 : S_HDMV/PGS
  87. Codec ID/Info                            : Picture based subtitle format used on BDs/HD-DVDs
  88. Duration                                 : 2 h 49 min
  89. Bit rate                                 : 29.7 kb/s
  90. Count of elements                        : 3306
  91. Stream size                              : 35.9 MiB (0%)
  92. Title                                    : English-PGS
  93. Language                                 : English
  94. Default                                  : No
  95. Forced                                   : No
  96. Original source medium                   : Blu-ray
  97. Menu
  98. 00:00:00.000                             : en:Chapter 01
  99. 00:12:34.378                             : en:Chapter 02
  100. 00:28:42.887                             : en:Chapter 03
  101. 00:47:34.935                             : en:Chapter 04
  102. 00:58:11.237                             : en:Chapter 05
  103. 01:14:23.041                             : en:Chapter 06
  104. 01:32:50.106                             : en:Chapter 07
  105. 01:45:44.046                             : en:Chapter 08
  106. 01:57:36.674                             : en:Chapter 09
  107. 02:12:00.579                             : en:Chapter 10
  108. 02:25:01.567                             : en:Chapter 11
  109. 02:39:02.658                             : en:Chapter 12
复制代码




                                       
                                       

                                       
                                       
                                       




回复

使用道具 举报

懒得打字嘛,点击右侧快捷回复 【右侧内容,后台自定义】
您需要登录后才可以回帖 登录 | 立即加入

本版积分规则

Archiver|小黑屋| 蓝光电影网 |网站地图

Copyright © 2021 Comsenz Inc. Powered by 蓝光电影网

蓝光电影网

本站内容由用户自主分享和转载自互联网,转载目的在于传递更多信息,并不代表本网赞同其观点和对其真实性负责。

如有侵权、违反国家法律政策行为,请联系我们,我们会第一时间及时清除和处理!

举报反馈邮箱:[email protected]

快速回复 返回顶部 返回列表