找回密码

蓝光电影网

查看: 86|回复: 0

[2160p] 斯巴达克斯/万夫莫敌 Spartacus.1960.2160p.BluRay.x265.10bit.SDR.DTS-X.7.1-SWTYBLZ 62.14GB

[复制链接]
蓝光币
1082
发表于 2020-7-22 10:01:18 | 显示全部楼层 |阅读模式


◎译  名 斯巴达克斯 / 万夫莫敌(台) / 斯巴达克思 / 风云群英会(港)
◎片  名 Spartacus
◎年  代 1960
◎产  地 美国
◎类  别 剧情 / 行动 / 列传 / 历史 / 冒险
◎语  言 英语
◎上映日期 1960-10-07
◎IMDb评分  7.9/10 from 121139 users
◎IMDb链接  https://www.imdb.com/title/tt0054331
◎豆瓣评分 8.0/10 from 17368 users
◎豆瓣链接 https://movie.douban.com/subject/1298366/
◎片  长 184分钟(首映版)
◎导  演 Stanley Kubrick
◎编  剧 Dalton Trumbo / Calder Willingham
◎主  演 Kirk Douglas
       Laurence Olivier
       Jean Simmons
       Charles Laughton
       Peter Ustinov
       John Gavin
       Nina Foch
       Tony Curtis

◎标  签 美国 | 史诗 | 战争 | 斯坦利·库布里克 | 历史 | 库布里克 | StanleyKubrick | 1960
◎简  介

  
  公元前73年,来自古罗马利比亚省的仆从斯巴达克斯(柯克?道格拉斯 Kirk Douglas 饰)在加普亚肉搏黉舍中爱上了女奴瓦瑞妮娅(琼?西蒙斯 Jean Simmons 饰)。同年,肉搏黉舍的仆从在斯巴达克斯率领下策动叛逆,获得自在,随后斯巴达克斯与瓦瑞妮娅团圆,结为佳耦。叛逆震动了罗马的统治团体,激化了元老院中贵族派战争民派的冲突。贵族将领克拉苏(劳伦斯?奥利维尔 Laurence Olivier 饰)伺机击败平民派首领格拉古(查尔斯?劳顿 Charles Laughton 饰),夺取了首席执政官的权利,实行独裁。格拉古为了冲击克拉苏,筹算私下放走仆从雄师;克拉苏却重金拉拢了海盗,并召回在国外作战的两支雄师。斯巴达克斯叛逆兵三面受敌,寡不抵众,数万仆从战死,他与妻子和六千幸存战友均被克拉苏所俘。在最初的关头,由于格拉古的帮助,情况又发生了变化。
◎获奖情况  
  第33届奥斯卡金像奖(1961)
  最好男配角 彼得·乌斯蒂诺夫
  彩色片最好摄影 拉塞尔·麦蒂
  最好剪辑(提名) Robert Lawrence
  彩色片最好艺术指导和布景 Eric Orbom / 亚历山大·高利思 / Julia Heron / 罗素·A·盖斯曼
  彩色片最好打扮设想 瓦勒斯 / Bill Thomas
  剧情/笑剧片最好配乐(提名) 阿历克斯·诺斯
  第18届金球奖(1961)
  电影类 最好剧情片
  电影类 最好导演(提名) 斯坦利·库布里克
  电影类 剧情片最好男配角(提名) 劳伦斯·奥利弗
  电影类 最好男配角(提名) 彼得·乌斯蒂诺夫 / 伍迪·斯特罗德
  电影类 最好原创配乐(提名) 阿历克斯·诺斯
  1. Video
  2. ID                                       : 1
  3. Format                                   : HEVC
  4. Format/Info                              : High Efficiency Video Coding
  5. Format profile                           : Main [email protected]@High
  6. Codec ID                                 : V_MPEGH/ISO/HEVC
  7. Duration                                 : 3 h 16 min
  8. Bit rate                                 : 38.5 Mb/s
  9. Width                                    : 3 840 pixels
  10. Height                                   : 1 744 pixels
  11. Display aspect ratio                     : 2.2:1
  12. Frame rate mode                          : Constant
  13. Frame rate                               : 23.976 (24000/1001/189150) FPS
  14. Color space                              : YUV
  15. Chroma subsampling                       : 4:2:0
  16. Bit depth                                : 10 bits
  17. Bits/(Pixel*Frame)                       : 0.240
  18. Stream size                              : 52.9 GiB (85%)
  19. Title                                    : Spartacus.1960.2160p.BluRay.x265.10bit.SDR.DTS-X.7.1-SWTYBLZ
  20. Writing library                          : x265 3.0ed72af837053:[Windows][GCC 8.2.0][64 bit] 10bit
  21. Encoding settings                        : cpuid=1111039 / frame-threads=6 / numa-pools=40 / wpp / no-pmode / no-pme / no-psnr / no-ssim / log-level=2 / input-csp=1 / input-res=3840x1744 / interlace=0 / total-frames=282870 / level-idc=51 / high-tier=1 / uhd-bd=0 / ref=3 / no-allow-non-conformance / repeat-headers / annexb / aud / hrd / info / hash=0 / no-temporal-layers / no-open-gop / min-keyint=1 / keyint=24 / gop-lookahead=0 / bframes=4 / b-adapt=2 / b-pyramid / bframe-bias=0 / rc-lookahead=25 / lookahead-slices=4 / scenecut=40 / radl=0 / no-splice / no-intra-refresh / ctu=64 / min-cu-size=8 / no-rect / no-amp / max-tu-size=32 / tu-inter-depth=1 / tu-intra-depth=1 / limit-tu=0 / rdoq-level=0 / dynamic-rd=0.00 / no-ssim-rd / signhide / no-tskip / nr-intra=0 / nr-inter=0 / no-constrained-intra / strong-intra-smoothing / max-merge=2 / limit-refs=3 / no-limit-modes / me=1 / subme=2 / merange=57 / temporal-mvp / weightp / no-weightb / no-analyze-src-pics / deblock=0:0 / no-sao / no-sao-non-deblock / rd=3 / no-early-skip / rskip / no-fast-intra / no-tskip-fast / no-cu-lossless / no-b-intra / no-splitrd-skip / rdpenalty=0 / psy-rd=2.00 / psy-rdoq=0.00 / no-rd-refine / no-lossless / cbqpoffs=0 / crqpoffs=0 / rc=crf / crf=18.0 / qcomp=0.60 / qpstep=4 / stats-write=0 / stats-read=0 / vbv-maxrate=160000 / vbv-bufsize=160000 / vbv-init=0.9 / crf-max=0.0 / crf-min=0.0 / ipratio=1.40 / pbratio=1.30 / aq-mode=1 / aq-strength=1.00 / cutree / zone-count=0 / no-strict-cbr / qg-size=32 / no-rc-grain / qpmax=69 / qpmin=0 / no-const-vbv / sar=1 / overscan=0 / videoformat=5 / range=0 / colorprim=2 / transfer=2 / colormatrix=2 / chromaloc=0 / display-window=0 / max-cll=0,0 / min-luma=0 / max-luma=1023 / log2-max-poc-lsb=8 / vui-timing-info / vui-hrd-info / slices=1 / opt-qp-pps / opt-ref-list-length-pps / no-multi-pass-opt-rps / scenecut-bias=0.05 / no-opt-cu-delta-qp / no-aq-motion / no-hdr / no-hdr-opt / no-dhdr10-opt / no-idr-recovery-sei / analysis-reuse-level=5 / scale-factor=0 / refine-intra=0 / refine-inter=0 / refine-mv=0 / refine-ctu-distortion=0 / no-limit-sao / ctu-info=0 / no-lowpass-dct / refine-analysis-type=0 / copy-pic=1 / max-ausize-factor=1.0 / no-dynamic-refine / no-single-sei / no-hevc-aq / qp-adaptation-range=1.00
  22. Language                                 : English
  23. Default                                  : Yes
  24. Forced                                   : No

  25. Audio #1
  26. ID                                       : 2
  27. ID in the original source medium         : 4352 (0x1100)
  28. Format                                   : DTS XLL X
  29. Format/Info                              : Digital Theater Systems
  30. Commercial name                          : DTS-HD Master Audio
  31. Codec ID                                 : A_DTS
  32. Duration                                 : 3 h 16 min
  33. Bit rate mode                            : Variable
  34. Bit rate                                 : 5 965 kb/s
  35. Channel(s)                               : 8 channels
  36. Channel(s)_Original                      : Object Based
  37. ChannelLayout_Original                   : Object Based
  38. Sampling rate                            : 48.0 kHz
  39. Frame rate                               : 93.750 FPS (512 SPF)
  40. Bit depth                                : 24 bits
  41. Stream size                              : 8.19 GiB (13%)
  42. Title                                    : Spartacus.1960.2160p.BluRay.x265.10bit.SDR.DTS-X.7.1-SWTYBLZ
  43. Language                                 : English
  44. Default                                  : Yes
  45. Forced                                   : No
  46. Original source medium                   : Blu-ray

  47. Audio #2
  48. ID                                       : 3
  49. Format                                   : AC-3
  50. Format/Info                              : Audio Coding 3
  51. Commercial name                          : Dolby Digital
  52. Codec ID                                 : A_AC3
  53. Duration                                 : 3 h 16 min
  54. Bit rate mode                            : Constant
  55. Bit rate                                 : 640 kb/s
  56. Channel(s)                               : 6 channels
  57. Channel layout                           : L R C LFE Ls Rs
  58. Sampling rate                            : 48.0 kHz
  59. Frame rate                               : 31.250 FPS (1536 SPF)
  60. Compression mode                         : Lossy
  61. Stream size                              : 900 MiB (1%)
  62. Title                                    : Spartacus.1960.2160p.BluRay.x265.10bit.SDR.DTS-X.7.1-SWTYBLZ
  63. Language                                 : English
  64. Service kind                             : Complete Main
  65. Default                                  : No
  66. Forced                                   : No

  67. Text #1
  68. ID                                       : 4
  69. Format                                   : UTF-8
  70. Codec ID                                 : S_TEXT/UTF8
  71. Codec ID/Info                            : UTF-8 Plain Text
  72. Duration                                 : 3 h 5 min
  73. Bit rate                                 : 46 b/s
  74. Count of elements                        : 1780
  75. Stream size                              : 62.7 KiB (0%)
  76. Title                                    : English-SRT
  77. Language                                 : English
  78. Default                                  : Yes
  79. Forced                                   : No

  80. Text #2
  81. ID                                       : 5
  82. ID in the original source medium         : 4768 (0x12A0)
  83. Format                                   : PGS
  84. Muxing mode                              : zlib
  85. Codec ID                                 : S_HDMV/PGS
  86. Codec ID/Info                            : Picture based subtitle format used on BDs/HD-DVDs
  87. Duration                                 : 3 h 5 min
  88. Bit rate                                 : 31.1 kb/s
  89. Count of elements                        : 3900
  90. Stream size                              : 41.2 MiB (0%)
  91. Title                                    : English-PGS
  92. Language                                 : English
  93. Default                                  : No
  94. Forced                                   : No
  95. Original source medium                   : Blu-ray

  96. Text #3
  97. ID                                       : 6
  98. ID in the original source medium         : 4769 (0x12A1)
  99. Format                                   : PGS
  100. Muxing mode                              : zlib
  101. Codec ID                                 : S_HDMV/PGS
  102. Codec ID/Info                            : Picture based subtitle format used on BDs/HD-DVDs
  103. Duration                                 : 3 h 13 min
  104. Bit rate                                 : 29.0 kb/s
  105. Count of elements                        : 3586
  106. Stream size                              : 40.1 MiB (0%)
  107. Title                                    : French-PGS
  108. Language                                 : French
  109. Default                                  : No
  110. Forced                                   : No
  111. Original source medium                   : Blu-ray

  112. Text #4
  113. ID                                       : 7
  114. ID in the original source medium         : 4770 (0x12A2)
  115. Format                                   : PGS
  116. Muxing mode                              : zlib
  117. Codec ID                                 : S_HDMV/PGS
  118. Codec ID/Info                            : Picture based subtitle format used on BDs/HD-DVDs
  119. Duration                                 : 3 h 13 min
  120. Bit rate                                 : 27.5 kb/s
  121. Count of elements                        : 3592
  122. Stream size                              : 38.1 MiB (0%)
  123. Title                                    : Spanish-PGS
  124. Language                                 : Spanish
  125. Default                                  : No
  126. Forced                                   : No
  127. Original source medium                   : Blu-ray

  128. Text #5
  129. ID                                       : 8
  130. ID in the original source medium         : 4771 (0x12A3)
  131. Format                                   : PGS
  132. Muxing mode                              : zlib
  133. Codec ID                                 : S_HDMV/PGS
  134. Codec ID/Info                            : Picture based subtitle format used on BDs/HD-DVDs
  135. Duration                                 : 3 h 5 min
  136. Bit rate                                 : 20.5 kb/s
  137. Count of elements                        : 3356
  138. Stream size                              : 27.2 MiB (0%)
  139. Title                                    : Japanese-PGS
  140. Language                                 : Japanese
  141. Default                                  : No
  142. Forced                                   : No
  143. Original source medium                   : Blu-ray

  144. Text #6
  145. ID                                       : 9
  146. ID in the original source medium         : 4772 (0x12A4)
  147. Format                                   : PGS
  148. Muxing mode                              : zlib
  149. Codec ID                                 : S_HDMV/PGS
  150. Codec ID/Info                            : Picture based subtitle format used on BDs/HD-DVDs
  151. Duration                                 : 3 h 16 min
  152. Bit rate                                 : 27.7 kb/s
  153. Count of elements                        : 3596
  154. Stream size                              : 38.9 MiB (0%)
  155. Title                                    : Portuguese-PGS
  156. Language                                 : Portuguese
  157. Default                                  : No
  158. Forced                                   : No
  159. Original source medium                   : Blu-ray

  160. Menu
  161. 00:00:00.000                             : en:Chapter 01
  162. 00:04:03.910                             : en:Chapter 02
  163. 00:14:05.636                             : en:Chapter 03
  164. 00:19:05.602                             : en:Chapter 04
  165. 00:31:56.539                             : en:Chapter 05
  166. 00:43:13.507                             : en:Chapter 06
  167. 00:53:03.638                             : en:Chapter 07
  168. 01:01:47.161                             : en:Chapter 08
  169. 01:20:18.438                             : en:Chapter 09
  170. 01:41:47.059                             : en:Chapter 10
  171. 01:47:55.760                             : en:Chapter 11
  172. 01:50:18.153                             : en:Chapter 12
  173. 02:10:43.919                             : en:Chapter 13
  174. 02:30:02.785                             : en:Chapter 14
  175. 03:00:56.971                             : en:Chapter 15
  176. 03:10:09.272                             : en:Chapter 16
复制代码





                                       
                                       

                                       
                                       
                                       




回复

使用道具 举报

懒得打字嘛,点击右侧快捷回复 【右侧内容,后台自定义】
您需要登录后才可以回帖 登录 | 立即加入

本版积分规则

Archiver|小黑屋| 蓝光电影网 |网站地图

Copyright © 2021 Comsenz Inc. Powered by 蓝光电影网

蓝光电影网

本站内容由用户自主分享和转载自互联网,转载目的在于传递更多信息,并不代表本网赞同其观点和对其真实性负责。

如有侵权、违反国家法律政策行为,请联系我们,我们会第一时间及时清除和处理!

举报反馈邮箱:[email protected]

快速回复 返回顶部 返回列表