找回密码

蓝光电影网

查看: 131|回复: 0

[UHD.HEVC] 狼嚎 The.Wolfs.Call.2019.FRENCH.2160p.BluRay.REMUX.HEVC.DTS-HD.MA.TrueHD.7.1.Atmos-FGT 69.88GB

[复制链接]
蓝光币
1084
发表于 2021-1-24 11:50:06 | 显示全部楼层 |阅读模式
[img][/img]

◎译  名 狼嚎/The Song of the Wolf/The Wolf's Call/潜航核战(港)/潜舰追缉(台)/狼之歌
◎片  名 Le Chant du loup
◎年  代 2019
◎产  地 法国
◎类  别 战争 / 灾难
◎语  言 法语
◎上映日期 2019-02-20(法国)
◎IMDb评分  6.9/10 from 13068 users
◎IMDb链接  https://www.imdb.com/title/tt7458762/
◎豆瓣评分 7.2/10 from 9354 users
◎豆瓣链接 https://movie.douban.com/subject/27150283/
◎片  长 116分钟
◎导  演 Antonin Baudry
◎编  剧 Antonin Baudry
◎主  演 弗朗索瓦·西维尔 Fran?ois Civil
       奥玛·希 Omar Sy
       马修·卡索维茨 Mathieu Kassovitz
       勒达·卡代布 Reda Kateb
       葆拉·贝尔 Paula Beer
       亚力克西斯·马沙利克 Alexis·Michalik
       让-伊夫·贝特鲁 Jean-Yves Berteloot
       达米安·勃纳尔 Damien Bonnard
◎标  签 战争 | 潜艇 | 法国 | 军事 | 2019 | 灾难 | 剧情 | 科幻
◎简  介


  一个年轻人有一种罕有的礼物,可以识别他听到的每一个声音。在一艘法国核潜艇上,一切都依靠于他,金耳朵。
  
  看上去绝对牢靠,他犯了一个毛病,让船员处于灭亡的危险当中。他希望重新获得同道的信赖,但他的追求会让他们堕入加倍戏剧化的地步。
  
  在核威慑和毛病信息的天下中,他们发现自己被困在一个没法控制的装备中。
◎获奖情况
  第45届法国凯撒电影奖 ?(2020)
  最好童贞作(提名) AntoninBaudry
  最好音效
  最好布景(提名)
  1. Video
  2. ID                                       : 1
  3. ID in the original source medium         : 4113 (0x1011)
  4. Format                                   : HEVC
  5. Format/Info                              : High Efficiency Video Coding
  6. Format profile                           : Main [email protected]@High
  7. HDR format                               : SMPTE ST 2086, HDR10 compatible
  8. Codec ID                                 : V_MPEGH/ISO/HEVC
  9. Duration                                 : 1 h 55 min
  10. Bit rate                                 : 75.4 Mb/s
  11. Width                                    : 3 840 pixels
  12. Height                                   : 2 160 pixels
  13. Display aspect ratio                     : 16:9
  14. Frame rate mode                          : Constant
  15. Frame rate                               : 23.976 (24000/1001/189150) FPS
  16. Color space                              : YUV
  17. Chroma subsampling                       : 4:2:0 (Type 2)
  18. Bit depth                                : 10 bits
  19. Bits/(Pixel*Frame)                       : 0.379
  20. Stream size                              : 61.1 GiB (87%)
  21. Writing library                          : ATEME Titan File 3.9.0 (4.9.0.0)        
  22. Language                                 : English
  23. Default                                  : No
  24. Forced                                   : No
  25. Color range                              : Limited
  26. Color primaries                          : BT.2020
  27. Transfer characteristics                 : PQ
  28. Matrix coefficients                      : BT.2020 non-constant
  29. Mastering display color primaries        : BT.2020
  30. Mastering display luminance              : min: 0.0050 cd/m2, max: 1000 cd/m2
  31. Maximum Content Light Level              : 1000 cd/m2
  32. Maximum Frame-Average Light Level        : 300 cd/m2
  33. Original source medium                   : Blu-ray
  34. Audio #1
  35. ID                                       : 2
  36. ID in the original source medium         : 4352 (0x1100)
  37. Format                                   : MLP FBA 16-ch
  38. Format/Info                              : Meridian Lossless Packing FBA with 16-channel presentation
  39. Commercial name                          : Dolby TrueHD with Dolby Atmos
  40. Codec ID                                 : A_TRUEHD
  41. Duration                                 : 1 h 55 min
  42. Bit rate mode                            : Variable
  43. Bit rate                                 : 3 635 kb/s
  44. Maximum bit rate                         : 5 967 kb/s
  45. Channel(s)                               : 8 channels
  46. Channel layout                           : L R C LFE Ls Rs Lb Rb
  47. Sampling rate                            : 48.0 kHz
  48. Frame rate                               : 1 200.000 FPS (40 SPF)
  49. Compression mode                         : Lossless
  50. Stream size                              : 2.94 GiB (4%)
  51. Title                                    : TrueHD 7.1 Atmos
  52. Language                                 : French
  53. Default                                  : Yes
  54. Forced                                   : No
  55. Original source medium                   : Blu-ray
  56. Number of dynamic objects                : 11
  57. Bed channel count                        : 1 channel
  58. Bed channel configuration                : LFE
  59. Audio #2
  60. ID                                       : 3
  61. Format                                   : DTS XLL
  62. Format/Info                              : Digital Theater Systems
  63. Commercial name                          : DTS-HD Master Audio
  64. Codec ID                                 : A_DTS
  65. Duration                                 : 1 h 55 min
  66. Bit rate mode                            : Variable
  67. Bit rate                                 : 4 095 kb/s
  68. Channel(s)                               : 8 channels
  69. Channel layout                           : C L R LFE Lb Rb Lss Rss
  70. Sampling rate                            : 48.0 kHz
  71. Frame rate                               : 93.750 FPS (512 SPF)
  72. Bit depth                                : 24 bits
  73. Compression mode                         : Lossless
  74. Stream size                              : 3.32 GiB (5%)
  75. Title                                    : DTS-HD MA 7.1
  76. Language                                 : French
  77. Default                                  : No
  78. Forced                                   : No
  79. Audio #3
  80. ID                                       : 4
  81. ID in the original source medium         : 4352 (0x1100)
  82. Format                                   : AC-3
  83. Format/Info                              : Audio Coding 3
  84. Commercial name                          : Dolby Digital
  85. Codec ID                                 : A_AC3
  86. Duration                                 : 1 h 55 min
  87. Bit rate mode                            : Constant
  88. Bit rate                                 : 640 kb/s
  89. Channel(s)                               : 6 channels
  90. Channel layout                           : L R C LFE Ls Rs
  91. Sampling rate                            : 48.0 kHz
  92. Frame rate                               : 31.250 FPS (1536 SPF)
  93. Compression mode                         : Lossy
  94. Stream size                              : 531 MiB (1%)
  95. Title                                    : DD 5.1
  96. Language                                 : French
  97. Service kind                             : Complete Main
  98. Default                                  : No
  99. Forced                                   : No
  100. Original source medium                   : Blu-ray
  101. Audio #4
  102. ID                                       : 5
  103. ID in the original source medium         : 4353 (0x1101)
  104. Format                                   : DTS XLL
  105. Format/Info                              : Digital Theater Systems
  106. Commercial name                          : DTS-HD Master Audio
  107. Codec ID                                 : A_DTS
  108. Duration                                 : 1 h 55 min
  109. Bit rate mode                            : Variable
  110. Bit rate                                 : 1 656 kb/s
  111. Channel(s)                               : 2 channels
  112. Sampling rate                            : 48.0 kHz
  113. Frame rate                               : 93.750 FPS (512 SPF)
  114. Bit depth                                : 24 bits
  115. Compression mode                         : Lossless
  116. Delay relative to video                  : 959 ms
  117. Stream size                              : 1.34 GiB (2%)
  118. Title                                    : DTS-HD MA 2.0
  119. Language                                 : French
  120. Default                                  : No
  121. Forced                                   : No
  122. Original source medium                   : Blu-ray
  123. Audio #5
  124. ID                                       : 6
  125. ID in the original source medium         : 4354 (0x1102)
  126. Format                                   : DTS
  127. Format/Info                              : Digital Theater Systems
  128. Codec ID                                 : A_DTS
  129. Duration                                 : 1 h 55 min
  130. Bit rate mode                            : Constant
  131. Bit rate                                 : 768 kb/s
  132. Channel(s)                               : 2 channels
  133. Channel layout                           : Lt Rt
  134. Sampling rate                            : 48.0 kHz
  135. Frame rate                               : 93.750 FPS (512 SPF)
  136. Bit depth                                : 16 bits
  137. Compression mode                         : Lossy
  138. Delay relative to video                  : 959 ms
  139. Stream size                              : 636 MiB (1%)
  140. Title                                    : DTS 2.0
  141. Language                                 : French
  142. Default                                  : No
  143. Forced                                   : No
  144. Original source medium                   : Blu-ray
  145. Text #1
  146. ID                                       : 7
  147. Format                                   : UTF-8
  148. Codec ID                                 : S_TEXT/UTF8
  149. Codec ID/Info                            : UTF-8 Plain Text
  150. Duration                                 : 1 h 54 min
  151. Bit rate                                 : 37 b/s
  152. Count of elements                        : 1167
  153. Stream size                              : 31.3 KiB (0%)
  154. Title                                    : English-SRT
  155. Language                                 : English
  156. Default                                  : Yes
  157. Forced                                   : No
  158. Text #2
  159. ID                                       : 8
  160. ID in the original source medium         : 4768 (0x12A0)
  161. Format                                   : PGS
  162. Muxing mode                              : zlib
  163. Codec ID                                 : S_HDMV/PGS
  164. Codec ID/Info                            : Picture based subtitle format used on BDs/HD-DVDs
  165. Duration                                 : 1 h 54 min
  166. Bit rate                                 : 30.8 kb/s
  167. Count of elements                        : 3258
  168. Stream size                              : 25.3 MiB (0%)
  169. Title                                    : French-PGS
  170. Language                                 : French
  171. Default                                  : No
  172. Forced                                   : No
  173. Original source medium                   : Blu-ray
  174. Menu
  175. 00:00:00.000                             : en:Chapter 01
  176. 00:12:02.096                             : en:Chapter 02
  177. 00:22:57.250                             : en:Chapter 03
  178. 00:32:05.048                             : en:Chapter 04
  179. 00:40:23.796                             : en:Chapter 05
  180. 00:51:37.552                             : en:Chapter 06
  181. 01:01:48.955                             : en:Chapter 07
  182. 01:12:54.620                             : en:Chapter 08
  183. 01:19:20.797                             : en:Chapter 09
  184. 01:28:48.906                             : en:Chapter 10
  185. 01:39:49.525                             : en:Chapter 11
  186. 01:49:54.421                             : en:Chapter 12
  187. 01:55:45.271                             : en:Chapter 13
复制代码



                                       
                                       

                                       
                                       
                                       




回复

使用道具 举报

懒得打字嘛,点击右侧快捷回复 【右侧内容,后台自定义】
您需要登录后才可以回帖 登录 | 立即加入

本版积分规则

Archiver|小黑屋| 蓝光电影网 |网站地图

Copyright © 2021 Comsenz Inc. Powered by 蓝光电影网

蓝光电影网

本站内容由用户自主分享和转载自互联网,转载目的在于传递更多信息,并不代表本网赞同其观点和对其真实性负责。

如有侵权、违反国家法律政策行为,请联系我们,我们会第一时间及时清除和处理!

举报反馈邮箱:[email protected]

快速回复 返回顶部 返回列表