找回密码

蓝光电影网

查看: 66|回复: 0

[2160p] 揭秘海军陆战队 We.the.Marines.2017.DOCU.2160p.BluRay.x265.10bit.SDR.DTS-HD.MA.TrueHD.7.1.Atmos-SWTYBLZ 14.04GB

[复制链接]
蓝光币
1084
发表于 2020-9-4 12:54:33 | 显示全部楼层 |阅读模式


◎译  名 揭秘水兵陆战队
◎片  名 We, the Marines
◎年  代 2017
◎产  地 美国
◎类  别 记载片 / 短片
◎语  言 英语
◎上映日期 2017-07-21(美国)
◎IMDb评分  5.4/10 from 397 users
◎IMDb链接  https://www.imdb.com/title/tt7422506/
◎豆瓣评分 /10 from 0 users
◎豆瓣链接 https://movie.douban.com/subject/30269830/
◎片  长 38分钟
◎导  演 格雷戈·迈吉里弗雷 Greg MacGillivray
◎主  演 吉恩·哈克曼 Gene Hackman
◎标  签 记载片 | 军事 | 美国 | 2017 | 短片 | IMAX | 美国电影 | 紀錄片
◎简  介


  这部记载片由身位演员和前水兵陆战队员的金·哈可曼讲解,展现了美国水兵陆战队成员的长大履历。
  1. Video
  2. ID                                       : 1
  3. Format                                   : HEVC
  4. Format/Info                              : High Efficiency Video Coding
  5. Format profile                           : Main [email protected]@High
  6. Codec ID                                 : V_MPEGH/ISO/HEVC
  7. Duration                                 : 37 min 53 s
  8. Bit rate                                 : 44.5 Mb/s
  9. Width                                    : 3 840 pixels
  10. Height                                   : 2 160 pixels
  11. Display aspect ratio                     : 16:9
  12. Frame rate mode                          : Constant
  13. Frame rate                               : 24.000 FPS
  14. Color space                              : YUV
  15. Chroma subsampling                       : 4:2:0
  16. Bit depth                                : 10 bits
  17. Bits/(Pixel*Frame)                       : 0.223
  18. Stream size                              : 11.8 GiB (85%)
  19. Title                                    : We.the.Marines.2017.DOCU.2160p.BluRay.x265.10bit.SDR.DTS-HD.MA.TrueHD.7.1.Atmos-SWTYBLZ
  20. Writing library                          : x265 3.0ed72af837053:[Windows][GCC 8.2.0][64 bit] 10bit
  21. Encoding settings                        : cpuid=1111039 / frame-threads=6 / numa-pools=40 / wpp / no-pmode / no-pme / no-psnr / no-ssim / log-level=2 / input-csp=1 / input-res=3840x2160 / interlace=0 / total-frames=54564 / level-idc=51 / high-tier=1 / uhd-bd=0 / ref=3 / no-allow-non-conformance / repeat-headers / annexb / aud / hrd / info / hash=0 / no-temporal-layers / no-open-gop / min-keyint=1 / keyint=24 / gop-lookahead=0 / bframes=4 / b-adapt=2 / b-pyramid / bframe-bias=0 / rc-lookahead=25 / lookahead-slices=4 / scenecut=40 / radl=0 / no-splice / no-intra-refresh / ctu=64 / min-cu-size=8 / no-rect / no-amp / max-tu-size=32 / tu-inter-depth=1 / tu-intra-depth=1 / limit-tu=0 / rdoq-level=0 / dynamic-rd=0.00 / no-ssim-rd / signhide / no-tskip / nr-intra=0 / nr-inter=0 / no-constrained-intra / strong-intra-smoothing / max-merge=2 / limit-refs=3 / no-limit-modes / me=1 / subme=2 / merange=57 / temporal-mvp / weightp / no-weightb / no-analyze-src-pics / deblock=0:0 / no-sao / no-sao-non-deblock / rd=3 / no-early-skip / rskip / no-fast-intra / no-tskip-fast / no-cu-lossless / no-b-intra / no-splitrd-skip / rdpenalty=0 / psy-rd=2.00 / psy-rdoq=0.00 / no-rd-refine / no-lossless / cbqpoffs=0 / crqpoffs=0 / rc=crf / crf=16.0 / qcomp=0.60 / qpstep=4 / stats-write=0 / stats-read=0 / vbv-maxrate=160000 / vbv-bufsize=160000 / vbv-init=0.9 / crf-max=0.0 / crf-min=0.0 / ipratio=1.40 / pbratio=1.30 / aq-mode=1 / aq-strength=1.00 / cutree / zone-count=0 / no-strict-cbr / qg-size=32 / no-rc-grain / qpmax=69 / qpmin=0 / no-const-vbv / sar=1 / overscan=0 / videoformat=5 / range=0 / colorprim=2 / transfer=2 / colormatrix=2 / chromaloc=0 / display-window=0 / max-cll=0,0 / min-luma=0 / max-luma=1023 / log2-max-poc-lsb=8 / vui-timing-info / vui-hrd-info / slices=1 / opt-qp-pps / opt-ref-list-length-pps / no-multi-pass-opt-rps / scenecut-bias=0.05 / no-opt-cu-delta-qp / no-aq-motion / no-hdr / no-hdr-opt / no-dhdr10-opt / no-idr-recovery-sei / analysis-reuse-level=5 / scale-factor=0 / refine-intra=0 / refine-inter=0 / refine-mv=0 / refine-ctu-distortion=0 / no-limit-sao / ctu-info=0 / no-lowpass-dct / refine-analysis-type=0 / copy-pic=1 / max-ausize-factor=1.0 / no-dynamic-refine / no-single-sei / no-hevc-aq / qp-adaptation-range=1.00
  22. Default                                  : Yes
  23. Forced                                   : No
  24. Audio #1
  25. ID                                       : 2
  26. ID in the original source medium         : 4352 (0x1100)
  27. Format                                   : MLP FBA 16-ch
  28. Format/Info                              : Meridian Lossless Packing FBA with 16-channel presentation
  29. Commercial name                          : Dolby TrueHD with Dolby Atmos
  30. Codec ID                                 : A_TRUEHD
  31. Duration                                 : 37 min 53 s
  32. Bit rate mode                            : Variable
  33. Bit rate                                 : 2 943 kb/s
  34. Maximum bit rate                         : 4 014 kb/s
  35. Channel(s)                               : 8 channels
  36. Channel layout                           : L R C LFE Ls Rs Lb Rb
  37. Sampling rate                            : 48.0 kHz
  38. Frame rate                               : 1 200.000 FPS (40 SPF)
  39. Compression mode                         : Lossless
  40. Stream size                              : 798 MiB (6%)
  41. Title                                    : We.the.Marines.2017.DOCU.2160p.BluRay.x265.10bit.SDR.DTS-HD.MA.TrueHD.7.1.Atmos-SWTYBLZ
  42. Language                                 : English
  43. Default                                  : Yes
  44. Forced                                   : No
  45. Original source medium                   : Blu-ray
  46. Number of dynamic objects                : 15
  47. Bed channel count                        : 1 channel
  48. Bed channel configuration                : LFE
  49. Audio #2
  50. ID                                       : 3
  51. Format                                   : DTS XLL
  52. Format/Info                              : Digital Theater Systems
  53. Commercial name                          : DTS-HD Master Audio
  54. Codec ID                                 : A_DTS
  55. Duration                                 : 37 min 53 s
  56. Bit rate mode                            : Variable
  57. Bit rate                                 : 3 979 kb/s
  58. Channel(s)                               : 8 channels
  59. Channel layout                           : C L R LFE Lb Rb Lss Rss
  60. Sampling rate                            : 48.0 kHz
  61. Frame rate                               : 93.750 FPS (512 SPF)
  62. Bit depth                                : 24 bits
  63. Compression mode                         : Lossless
  64. Stream size                              : 1.05 GiB (8%)
  65. Title                                    : We.the.Marines.2017.DOCU.2160p.BluRay.x265.10bit.SDR.DTS-HD.MA.TrueHD.7.1.Atmos-SWTYBLZ
  66. Language                                 : English
  67. Default                                  : No
  68. Forced                                   : No
  69. Audio #3
  70. ID                                       : 4
  71. ID in the original source medium         : 4352 (0x1100)
  72. Format                                   : AC-3
  73. Format/Info                              : Audio Coding 3
  74. Commercial name                          : Dolby Digital
  75. Codec ID                                 : A_AC3
  76. Duration                                 : 37 min 53 s
  77. Bit rate mode                            : Constant
  78. Bit rate                                 : 640 kb/s
  79. Channel(s)                               : 6 channels
  80. Channel layout                           : L R C LFE Ls Rs
  81. Sampling rate                            : 48.0 kHz
  82. Frame rate                               : 31.250 FPS (1536 SPF)
  83. Compression mode                         : Lossy
  84. Stream size                              : 173 MiB (1%)
  85. Title                                    : We.the.Marines.2017.DOCU.2160p.BluRay.x265.10bit.SDR.DTS-HD.MA.TrueHD.7.1.Atmos-SWTYBLZ
  86. Language                                 : English
  87. Service kind                             : Complete Main
  88. Default                                  : No
  89. Forced                                   : No
  90. Original source medium                   : Blu-ray
  91. Text #1
  92. ID                                       : 5
  93. Format                                   : UTF-8
  94. Codec ID                                 : S_TEXT/UTF8
  95. Codec ID/Info                            : UTF-8 Plain Text
  96. Duration                                 : 37 min 23 s
  97. Bit rate                                 : 65 b/s
  98. Count of elements                        : 572
  99. Stream size                              : 17.9 KiB (0%)
  100. Title                                    : English-SRT
  101. Language                                 : English
  102. Default                                  : Yes
  103. Forced                                   : No
  104. Text #2
  105. ID                                       : 6
  106. Format                                   : UTF-8
  107. Codec ID                                 : S_TEXT/UTF8
  108. Codec ID/Info                            : UTF-8 Plain Text
  109. Duration                                 : 37 min 48 s
  110. Bit rate                                 : 72 b/s
  111. Count of elements                        : 643
  112. Stream size                              : 20.2 KiB (0%)
  113. Title                                    : English-SDH-SRT
  114. Language                                 : English
  115. Default                                  : No
  116. Forced                                   : No
  117. Text #3
  118. ID                                       : 7
  119. ID in the original source medium         : 4768 (0x12A0)
  120. Format                                   : PGS
  121. Muxing mode                              : zlib
  122. Codec ID                                 : S_HDMV/PGS
  123. Codec ID/Info                            : Picture based subtitle format used on BDs/HD-DVDs
  124. Duration                                 : 37 min 48 s
  125. Bit rate                                 : 30.3 kb/s
  126. Count of elements                        : 1292
  127. Stream size                              : 8.20 MiB (0%)
  128. Title                                    : English-PGS
  129. Language                                 : English
  130. Default                                  : No
  131. Forced                                   : No
  132. Original source medium                   : Blu-ray
  133. Menu
  134. 00:00:00.000                             : en:Chapter 01
  135. 00:04:14.500                             : en:Chapter 02
  136. 00:09:58.375                             : en:Chapter 03
  137. 00:14:02.416                             : en:Chapter 04
  138. 00:18:11.625                             : en:Chapter 05
  139. 00:21:08.583                             : en:Chapter 06
  140. 00:25:02.708                             : en:Chapter 07
  141. 00:28:49.333                             : en:Chapter 08
  142. 00:32:38.958                             : en:Chapter 09
  143. 00:37:04.125                             : en:Chapter 10
复制代码



                                       
                                       

                                       
                                       
                                       




揭秘水兵陆战队 We.the.Marines.2017.DOCU.2160p.BluRay.x265.10bit.SDR.DTS-HD.MA.TrueHD.7.1.Atmos-SWTYBLZ 14.04GB

We.the.Marines.2017.DOCU.2160p.BluRay.x265.10bit.SDR.DTS-HD.MA.TrueHD.7.1.Atmos-.zip

70.99 KB, 下载次数: 2, 下载积分: 蓝光币 -2

回复

使用道具 举报

懒得打字嘛,点击右侧快捷回复 【右侧内容,后台自定义】
您需要登录后才可以回帖 登录 | 立即加入

本版积分规则

Archiver|小黑屋| 蓝光电影网 |网站地图

Copyright © 2021 Comsenz Inc. Powered by 蓝光电影网

蓝光电影网

本站内容由用户自主分享和转载自互联网,转载目的在于传递更多信息,并不代表本网赞同其观点和对其真实性负责。

如有侵权、违反国家法律政策行为,请联系我们,我们会第一时间及时清除和处理!

举报反馈邮箱:[email protected]

快速回复 返回顶部 返回列表