找回密码

蓝光电影网

查看: 210|回复: 0

[UHD.HEVC] 街头黑帮 Vigilante.1982.2160p.BluRay.REMUX.HEVC.DTS-HD.MA.TrueHD.7.1.Atmos-FGT 55.07GB

[复制链接]
蓝光币
1080
发表于 2020-12-16 18:55:57 | 显示全部楼层 |阅读模式
[img][/img]

◎译  名 陌头黑帮/Street Gang
◎片  名 Vigilante
◎年  代 1983
◎产  地 美国
◎类  别 剧情 / 行动 / 犯罪
◎语  言 英语
◎上映日期 1983
◎IMDb评分  6.5/10 from 2809 users
◎IMDb链接  https://www.imdb.com/title/tt0084867/
◎豆瓣评分 /10 from 0 users
◎豆瓣链接 https://movie.douban.com/subject/3637711/
◎片  长 90 分钟
◎导  演 威廉·拉斯蒂格 William Lustig
◎编  剧 Richard Vetere
◎主  演 罗伯特·福斯特 Robert Forster
       弗雷德·威廉森 Fred Williamson
       理查德·布赖特 Richard Bright
       拉特安亚·阿尔达 Rutanya Alda
       卡洛尔·琳蕾 Carol Lynley
       伍迪·斯特罗德 Woody Strode
       乔·斯皮内尔 Joe Spinell
       史蒂夫·詹姆斯 Steve James
       Willie Colón
       Bo Rucker
       Raymond Serra
       Vincent Russo
       Filomena Spagnuolo
       Sal Carollo
       Joseph Carberry
       文森特贝克 Vincent Beck
       彼得·萨瓦奇 Peter Savage
       威廉·拉斯蒂格 William Lustig
◎标  签 1983 | 犯罪 | 美国电影 | 80s | 美国 | William_Lustig | BDISO | 80年月
◎简  介


  暂无相关剧情先容
  1. Video
  2. ID                                       : 1
  3. ID in the original source medium         : 4113 (0x1011)
  4. Format                                   : HEVC
  5. Format/Info                              : High Efficiency Video Coding
  6. Format profile                           : Main [email protected]@High
  7. HDR format                               : SMPTE ST 2086, HDR10 compatible
  8. Codec ID                                 : V_MPEGH/ISO/HEVC
  9. Duration                                 : 1 h 29 min
  10. Bit rate                                 : 76.5 Mb/s
  11. Width                                    : 3 840 pixels
  12. Height                                   : 2 160 pixels
  13. Display aspect ratio                     : 16:9
  14. Frame rate mode                          : Constant
  15. Frame rate                               : 23.976 (24000/1001/189150) FPS
  16. Color space                              : YUV
  17. Chroma subsampling                       : 4:2:0 (Type 2)
  18. Bit depth                                : 10 bits
  19. Bits/(Pixel*Frame)                       : 0.385
  20. Stream size                              : 47.8 GiB (87%)
  21. Language                                 : English
  22. Default                                  : Yes
  23. Forced                                   : No
  24. Color range                              : Limited
  25. Color primaries                          : BT.2020
  26. Transfer characteristics                 : PQ
  27. Matrix coefficients                      : BT.2020 non-constant
  28. Mastering display color primaries        : Display P3
  29. Mastering display luminance              : min: 0.0001 cd/m2, max: 1000 cd/m2
  30. Original source medium                   : Blu-ray

  31. Audio #1
  32. ID                                       : 2
  33. ID in the original source medium         : 4352 (0x1100)
  34. Format                                   : MLP FBA 16-ch
  35. Format/Info                              : Meridian Lossless Packing FBA with 16-channel presentation
  36. Commercial name                          : Dolby TrueHD with Dolby Atmos
  37. Codec ID                                 : A_TRUEHD
  38. Duration                                 : 1 h 29 min
  39. Bit rate mode                            : Variable
  40. Bit rate                                 : 3 778 kb/s
  41. Maximum bit rate                         : 5 697 kb/s
  42. Channel(s)                               : 8 channels
  43. Channel layout                           : L R C LFE Ls Rs Lb Rb
  44. Sampling rate                            : 48.0 kHz
  45. Frame rate                               : 1 200.000 FPS (40 SPF)
  46. Compression mode                         : Lossless
  47. Stream size                              : 2.36 GiB (4%)
  48. Title                                    : TrueHD 7.1 Atmos
  49. Language                                 : English
  50. Default                                  : Yes
  51. Forced                                   : No
  52. Original source medium                   : Blu-ray
  53. Number of dynamic objects                : 11
  54. Bed channel count                        : 1 channel
  55. Bed channel configuration                : LFE

  56. Audio #2
  57. ID                                       : 3
  58. Format                                   : DTS XLL
  59. Format/Info                              : Digital Theater Systems
  60. Commercial name                          : DTS-HD Master Audio
  61. Codec ID                                 : A_DTS
  62. Duration                                 : 1 h 29 min
  63. Bit rate mode                            : Variable
  64. Bit rate                                 : 3 812 kb/s
  65. Channel(s)                               : 8 channels
  66. Channel layout                           : C L R LFE Lb Rb Lss Rss
  67. Sampling rate                            : 48.0 kHz
  68. Frame rate                               : 93.750 FPS (512 SPF)
  69. Bit depth                                : 24 bits
  70. Compression mode                         : Lossless
  71. Stream size                              : 2.38 GiB (4%)
  72. Title                                    : DTS-HD MA 7.1
  73. Language                                 : English
  74. Default                                  : No
  75. Forced                                   : No

  76. Audio #3
  77. ID                                       : 4
  78. ID in the original source medium         : 4352 (0x1100)
  79. Format                                   : AC-3
  80. Format/Info                              : Audio Coding 3
  81. Commercial name                          : Dolby Digital
  82. Codec ID                                 : A_AC3
  83. Duration                                 : 1 h 29 min
  84. Bit rate mode                            : Constant
  85. Bit rate                                 : 640 kb/s
  86. Channel(s)                               : 6 channels
  87. Channel layout                           : L R C LFE Ls Rs
  88. Sampling rate                            : 48.0 kHz
  89. Frame rate                               : 31.250 FPS (1536 SPF)
  90. Compression mode                         : Lossy
  91. Stream size                              : 410 MiB (1%)
  92. Title                                    : DTS-HD MA 5.1
  93. Language                                 : English
  94. Service kind                             : Complete Main
  95. Default                                  : No
  96. Forced                                   : No
  97. Original source medium                   : Blu-ray

  98. Audio #4
  99. ID                                       : 5
  100. ID in the original source medium         : 4354 (0x1102)
  101. Format                                   : DTS XLL
  102. Format/Info                              : Digital Theater Systems
  103. Commercial name                          : DTS-HD Master Audio
  104. Codec ID                                 : A_DTS
  105. Duration                                 : 1 h 29 min
  106. Bit rate mode                            : Variable
  107. Bit rate                                 : 2 095 kb/s
  108. Channel(s)                               : 2 channels
  109. Channel layout                           : L R
  110. Sampling rate                            : 48.0 kHz
  111. Frame rate                               : 93.750 FPS (512 SPF)
  112. Bit depth                                : 24 bits
  113. Compression mode                         : Lossless
  114. Stream size                              : 1.31 GiB (2%)
  115. Title                                    : DTS-HD MA 2.0
  116. Language                                 : English
  117. Default                                  : No
  118. Forced                                   : No
  119. Original source medium                   : Blu-ray

  120. Audio #5
  121. ID                                       : 6
  122. ID in the original source medium         : 4355 (0x1103)
  123. Format                                   : AC-3
  124. Format/Info                              : Audio Coding 3
  125. Commercial name                          : Dolby Digital
  126. Codec ID                                 : A_AC3
  127. Duration                                 : 1 h 29 min
  128. Bit rate mode                            : Constant
  129. Bit rate                                 : 192 kb/s
  130. Channel(s)                               : 2 channels
  131. Channel layout                           : L R
  132. Sampling rate                            : 48.0 kHz
  133. Frame rate                               : 31.250 FPS (1536 SPF)
  134. Compression mode                         : Lossy
  135. Stream size                              : 123 MiB (0%)
  136. Title                                    : DD 2.0
  137. Language                                 : French
  138. Service kind                             : Complete Main
  139. Default                                  : No
  140. Forced                                   : No
  141. Original source medium                   : Blu-ray

  142. Audio #6
  143. ID                                       : 7
  144. ID in the original source medium         : 4356 (0x1104)
  145. Format                                   : AC-3
  146. Format/Info                              : Audio Coding 3
  147. Commercial name                          : Dolby Digital
  148. Codec ID                                 : A_AC3
  149. Duration                                 : 1 h 29 min
  150. Bit rate mode                            : Constant
  151. Bit rate                                 : 192 kb/s
  152. Channel(s)                               : 2 channels
  153. Channel layout                           : L R
  154. Sampling rate                            : 48.0 kHz
  155. Frame rate                               : 31.250 FPS (1536 SPF)
  156. Compression mode                         : Lossy
  157. Stream size                              : 123 MiB (0%)
  158. Title                                    : DD 2.0
  159. Language                                 : Italian
  160. Service kind                             : Complete Main
  161. Default                                  : No
  162. Forced                                   : No
  163. Original source medium                   : Blu-ray

  164. Audio #7
  165. ID                                       : 8
  166. ID in the original source medium         : 4357 (0x1105)
  167. Format                                   : AC-3
  168. Format/Info                              : Audio Coding 3
  169. Commercial name                          : Dolby Digital
  170. Codec ID                                 : A_AC3
  171. Duration                                 : 1 h 29 min
  172. Bit rate mode                            : Constant
  173. Bit rate                                 : 192 kb/s
  174. Channel(s)                               : 2 channels
  175. Channel layout                           : L R
  176. Sampling rate                            : 48.0 kHz
  177. Frame rate                               : 31.250 FPS (1536 SPF)
  178. Compression mode                         : Lossy
  179. Stream size                              : 123 MiB (0%)
  180. Title                                    : DD 2.0
  181. Language                                 : German
  182. Service kind                             : Complete Main
  183. Default                                  : No
  184. Forced                                   : No
  185. Original source medium                   : Blu-ray

  186. Audio #8
  187. ID                                       : 9
  188. ID in the original source medium         : 4358 (0x1106)
  189. Format                                   : AC-3
  190. Format/Info                              : Audio Coding 3
  191. Commercial name                          : Dolby Digital
  192. Codec ID                                 : A_AC3
  193. Duration                                 : 1 h 29 min
  194. Bit rate mode                            : Constant
  195. Bit rate                                 : 192 kb/s
  196. Channel(s)                               : 2 channels
  197. Channel layout                           : L R
  198. Sampling rate                            : 48.0 kHz
  199. Frame rate                               : 31.250 FPS (1536 SPF)
  200. Compression mode                         : Lossy
  201. Stream size                              : 123 MiB (0%)
  202. Title                                    : DD 2.0
  203. Language                                 : English
  204. Service kind                             : Complete Main
  205. Default                                  : No
  206. Forced                                   : No
  207. Original source medium                   : Blu-ray

  208. Audio #9
  209. ID                                       : 10
  210. ID in the original source medium         : 4359 (0x1107)
  211. Format                                   : AC-3
  212. Format/Info                              : Audio Coding 3
  213. Commercial name                          : Dolby Digital
  214. Codec ID                                 : A_AC3
  215. Duration                                 : 1 h 29 min
  216. Bit rate mode                            : Constant
  217. Bit rate                                 : 192 kb/s
  218. Channel(s)                               : 2 channels
  219. Channel layout                           : L R
  220. Sampling rate                            : 48.0 kHz
  221. Frame rate                               : 31.250 FPS (1536 SPF)
  222. Compression mode                         : Lossy
  223. Stream size                              : 123 MiB (0%)
  224. Title                                    : DD 2.0
  225. Language                                 : English
  226. Service kind                             : Complete Main
  227. Default                                  : No
  228. Forced                                   : No
  229. Original source medium                   : Blu-ray

  230. Audio #10
  231. ID                                       : 11
  232. ID in the original source medium         : 4360 (0x1108)
  233. Format                                   : AC-3
  234. Format/Info                              : Audio Coding 3
  235. Commercial name                          : Dolby Digital
  236. Codec ID                                 : A_AC3
  237. Duration                                 : 1 h 29 min
  238. Bit rate mode                            : Constant
  239. Bit rate                                 : 192 kb/s
  240. Channel(s)                               : 2 channels
  241. Channel layout                           : L R
  242. Sampling rate                            : 48.0 kHz
  243. Frame rate                               : 31.250 FPS (1536 SPF)
  244. Compression mode                         : Lossy
  245. Stream size                              : 123 MiB (0%)
  246. Title                                    : DD 2.0
  247. Language                                 : English
  248. Service kind                             : Complete Main
  249. Default                                  : No
  250. Forced                                   : No
  251. Original source medium                   : Blu-ray

  252. Text #1
  253. ID                                       : 12
  254. Format                                   : UTF-8
  255. Codec ID                                 : S_TEXT/UTF8
  256. Codec ID/Info                            : UTF-8 Plain Text
  257. Duration                                 : 1 h 24 min
  258. Bit rate                                 : 40 b/s
  259. Count of elements                        : 717
  260. Stream size                              : 25.2 KiB (0%)
  261. Title                                    : English-SRT
  262. Language                                 : English
  263. Default                                  : Yes
  264. Forced                                   : No

  265. Text #2
  266. ID                                       : 13
  267. ID in the original source medium         : 4768 (0x12A0)
  268. Format                                   : PGS
  269. Muxing mode                              : zlib
  270. Codec ID                                 : S_HDMV/PGS
  271. Codec ID/Info                            : Picture based subtitle format used on BDs/HD-DVDs
  272. Duration                                 : 1 h 24 min
  273. Bit rate                                 : 30.2 kb/s
  274. Count of elements                        : 1668
  275. Stream size                              : 18.3 MiB (0%)
  276. Title                                    : English-PGS
  277. Language                                 : English
  278. Default                                  : No
  279. Forced                                   : No
  280. Original source medium                   : Blu-ray

  281. Text #3
  282. ID                                       : 14
  283. ID in the original source medium         : 4769 (0x12A1)
  284. Format                                   : PGS
  285. Muxing mode                              : zlib
  286. Codec ID                                 : S_HDMV/PGS
  287. Codec ID/Info                            : Picture based subtitle format used on BDs/HD-DVDs
  288. Duration                                 : 1 h 24 min
  289. Bit rate                                 : 26.8 kb/s
  290. Count of elements                        : 1408
  291. Stream size                              : 16.3 MiB (0%)
  292. Title                                    : French-PGS
  293. Language                                 : French
  294. Default                                  : No
  295. Forced                                   : No
  296. Original source medium                   : Blu-ray

  297. Text #4
  298. ID                                       : 15
  299. ID in the original source medium         : 4770 (0x12A2)
  300. Format                                   : PGS
  301. Muxing mode                              : zlib
  302. Codec ID                                 : S_HDMV/PGS
  303. Codec ID/Info                            : Picture based subtitle format used on BDs/HD-DVDs
  304. Duration                                 : 1 h 24 min
  305. Bit rate                                 : 26.4 kb/s
  306. Count of elements                        : 1384
  307. Stream size                              : 16.0 MiB (0%)
  308. Title                                    : Spanish-PGS
  309. Language                                 : Spanish
  310. Default                                  : No
  311. Forced                                   : No
  312. Original source medium                   : Blu-ray

  313. Text #5
  314. ID                                       : 16
  315. ID in the original source medium         : 4771 (0x12A3)
  316. Format                                   : PGS
  317. Muxing mode                              : zlib
  318. Codec ID                                 : S_HDMV/PGS
  319. Codec ID/Info                            : Picture based subtitle format used on BDs/HD-DVDs
  320. Duration                                 : 1 h 24 min
  321. Bit rate                                 : 23.8 kb/s
  322. Count of elements                        : 1404
  323. Stream size                              : 14.4 MiB (0%)
  324. Title                                    : Portuguese-PGS
  325. Language                                 : Portuguese
  326. Default                                  : No
  327. Forced                                   : No
  328. Original source medium                   : Blu-ray

  329. Menu
  330. 00:00:00.000                             : en:Chapter 01
  331. 00:01:47.065                             : en:Chapter 02
  332. 00:03:30.084                             : en:Chapter 03
  333. 00:07:58.186                             : en:Chapter 04
  334. 00:12:30.750                             : en:Chapter 05
  335. 00:18:45.749                             : en:Chapter 06
  336. 00:24:30.469                             : en:Chapter 07
  337. 00:30:22.821                             : en:Chapter 08
  338. 00:35:46.352                             : en:Chapter 09
  339. 00:43:02.580                             : en:Chapter 10
  340. 00:51:38.095                             : en:Chapter 11
  341. 00:55:45.258                             : en:Chapter 12
  342. 01:01:56.713                             : en:Chapter 13
  343. 01:11:08.264                             : en:Chapter 14
  344. 01:16:38.176                             : en:Chapter 15
  345. 01:21:58.872                             : en:Chapter 16
  346. 01:25:54.149                             : en:Chapter 17
复制代码



                                       
                                       

                                       
                                       
                                       




回复

使用道具 举报

懒得打字嘛,点击右侧快捷回复 【右侧内容,后台自定义】
您需要登录后才可以回帖 登录 | 立即加入

本版积分规则

Archiver|小黑屋| 蓝光电影网 |网站地图

Copyright © 2021 Comsenz Inc. Powered by 蓝光电影网

蓝光电影网

本站内容由用户自主分享和转载自互联网,转载目的在于传递更多信息,并不代表本网赞同其观点和对其真实性负责。

如有侵权、违反国家法律政策行为,请联系我们,我们会第一时间及时清除和处理!

举报反馈邮箱:[email protected]

快速回复 返回顶部 返回列表