找回密码

蓝光电影网

查看: 98|回复: 0

[2160p] 阴间大法师 Beetlejuice.1988.2160p.BluRay.x264.8bit.SDR.DTS-HD.MA.TrueHD.7.1.Atmos-SWTYBLZ 53.47GB

[复制链接]
蓝光币
1080
发表于 2020-9-1 16:19:37 | 显示全部楼层 |阅读模式


◎译  名 阴间大法师/Beetle Juice/哗鬼家属(港)/欢乐两重天/甲壳虫汁
◎片  名 Beetlejuice
◎年  代 1988
◎产  地 美国
◎类  别 笑剧 / 奇异
◎语  言 英语
◎上映日期 1988-03-30(美国)
◎IMDb评分  7.5/10 from 251774 users
◎IMDb链接  https://www.imdb.com/title/tt0094721/
◎豆瓣评分 7.7/10 from 10767 users
◎豆瓣链接 https://movie.douban.com/subject/1293639/
◎片  长 92 分钟
◎导  演 蒂姆·波顿 Tim Burton
◎编  剧 迈克尔·麦克道尔 Michael McDowell / 拉瑞·威尔森 Larry Wilson / 沃伦·斯卡伦 Warren Skaaren / 蒂姆·波顿 Tim Burton
◎主  演 迈克尔·基顿 Michael Keaton
       薇诺娜·瑞德 Winona Ryder
       吉娜·戴维斯 Geena Davis
       亚历克·鲍德温 Alec Baldwin
       凯瑟琳·欧哈拉 Catherine O'Hara
       杰弗瑞·琼斯 Jeffrey Jones
       格伦·沙迪克斯 Glenn Shadix
       卡门·菲尔皮 Carmen Filpi
       西尔维娅·西德尼 Sylvia Sidney
       罗伯特·顾雷特 Robert Goulet
       迪克·卡维特 Dick Cavett
       阿德尔·卢茨 Adelle Lutz
       玛丽·斯奇塔姆 Maree Cheatham
       托尼·考克斯 Tony Cox
       杰克·安杰尔 Jack Angel
       Hugo Stanger
       Charles Schneider
       Patrice Martinez
       Simmy Bow
◎标  签 TimBurton | 美国 | 笑剧 | 奇异 | 魔幻 | 1988 | 美国电影 | 蒂姆·波顿
◎简  介


  经营着一家五金店的亚当(亚历克?鲍德温 Alec Baldwin 饰)与芭芭拉(吉娜?戴维斯 Geena Davis 饰)夫妻俩很是恩爱,两人虽然没有孩子,但把一切对相互的爱都倾注在打扮自己的家上。此日夫妻俩出行时发生车祸,双双死亡。成为鬼魂的两夫妻不忍分开自己的家,但阴阳相隔他们只能眼睁睁看的自己的家中搬来了新仆人。入住的迪兹与查尔斯一家将夫妻俩的屋子大举革新,亚当和芭芭拉想出闹鬼招数试图吓走迪兹一家却不起感化,反被迪兹爱好呆在黑黑暗的怪异女儿莉迪亚(薇诺娜?瑞德 Winona Ryder 饰)看穿,做鬼也可贵庄严。无计可施的夫妻俩依照亡灵手册指引,奉求流浪于阴间支流之外的大法师“甲壳虫汁”(迈克尔?基顿 Michael Keaton 饰)帮助他们夺回自己的家……
◎获奖情况
  第61届奥斯卡金像奖 ?(1989)
  最好化装 维·尼尔?/?SteveLaPorte?/?RobertShort
  1. Video
  2. ID                                       : 1
  3. Format                                   : AVC
  4. Format/Info                              : Advanced Video Codec
  5. Format profile                           : [email protected]
  6. Format settings                          : CABAC / 5 Ref Frames
  7. Format settings, CABAC                   : Yes
  8. Format settings, Reference frames        : 5 frames
  9. Codec ID                                 : V_MPEG4/ISO/AVC
  10. Duration                                 : 1 h 32 min
  11. Bit rate                                 : 74.9 Mb/s
  12. Width                                    : 3 840 pixels
  13. Height                                   : 2 076 pixels
  14. Display aspect ratio                     : 1.85:1
  15. Frame rate mode                          : Constant
  16. Frame rate                               : 23.976 (24000/1001/189150) FPS
  17. Color space                              : YUV
  18. Chroma subsampling                       : 4:2:0
  19. Bit depth                                : 8 bits
  20. Scan type                                : Progressive
  21. Bits/(Pixel*Frame)                       : 0.392
  22. Stream size                              : 48.2 GiB (91%)
  23. Title                                    : Beetlejuice.1988.2160p.BluRay.x264.8bit.SDR.DTS-HD.MA.TrueHD.7.1.Atmos-SWTYBLZ
  24. Writing library                          : x264 core 157 r2935 545de2f
  25. Encoding settings                        : cabac=1 / ref=5 / deblock=1:-1:-1 / analyse=0x3:0x113 / me=umh / subme=10 / psy=1 / psy_rd=1.00:0.15 / mixed_ref=1 / me_range=48 / chroma_me=1 / trellis=2 / 8x8dct=1 / cqm=0 / deadzone=21,11 / fast_pskip=1 / chroma_qp_offset=-3 / threads=48 / lookahead_threads=4 / sliced_threads=0 / nr=0 / decimate=0 / interlaced=0 / bluray_compat=0 / constrained_intra=0 / bframes=3 / b_pyramid=2 / b_adapt=2 / b_bias=0 / direct=3 / weightb=1 / open_gop=0 / weightp=2 / keyint=250 / keyint_min=23 / scenecut=40 / intra_refresh=0 / rc_lookahead=50 / rc=crf / mbtree=1 / crf=18.0 / qcomp=0.60 / qpmin=0 / qpmax=69 / qpstep=4 / ip_ratio=1.40 / aq=1:1.00
  26. Language                                 : English
  27. Default                                  : Yes
  28. Forced                                   : No
  29. Audio #1
  30. ID                                       : 2
  31. Format                                   : MLP FBA 16-ch
  32. Format/Info                              : Meridian Lossless Packing FBA with 16-channel presentation
  33. Commercial name                          : Dolby TrueHD with Dolby Atmos
  34. Codec ID                                 : A_TRUEHD
  35. Duration                                 : 1 h 32 min
  36. Bit rate mode                            : Variable
  37. Bit rate                                 : 3 117 kb/s
  38. Maximum bit rate                         : 5 781 kb/s
  39. Channel(s)                               : 8 channels
  40. Channel layout                           : L R C LFE Ls Rs Lb Rb
  41. Sampling rate                            : 48.0 kHz
  42. Frame rate                               : 1 200.000 FPS (40 SPF)
  43. Compression mode                         : Lossless
  44. Stream size                              : 2.01 GiB (4%)
  45. Title                                    : Beetlejuice.1988.2160p.BluRay.x264.8bit.SDR.DTS-HD.MA.TrueHD.7.1.Atmos-SWTYBLZ
  46. Language                                 : English
  47. Default                                  : Yes
  48. Forced                                   : No
  49. Number of dynamic objects                : 11
  50. Bed channel count                        : 1 channel
  51. Bed channel configuration                : LFE
  52. Audio #2
  53. ID                                       : 3
  54. Format                                   : DTS XLL
  55. Format/Info                              : Digital Theater Systems
  56. Commercial name                          : DTS-HD Master Audio
  57. Codec ID                                 : A_DTS
  58. Duration                                 : 1 h 32 min
  59. Bit rate mode                            : Variable
  60. Bit rate                                 : 3 588 kb/s
  61. Channel(s)                               : 8 channels
  62. Channel layout                           : C L R LFE Lb Rb Lss Rss
  63. Sampling rate                            : 48.0 kHz
  64. Frame rate                               : 93.750 FPS (512 SPF)
  65. Bit depth                                : 24 bits
  66. Compression mode                         : Lossless
  67. Stream size                              : 2.31 GiB (4%)
  68. Title                                    : Beetlejuice.1988.2160p.BluRay.x264.8bit.SDR.DTS-HD.MA.TrueHD.7.1.Atmos-SWTYBLZ
  69. Language                                 : English
  70. Default                                  : No
  71. Forced                                   : No
  72. Audio #3
  73. ID                                       : 4
  74. Format                                   : AC-3
  75. Format/Info                              : Audio Coding 3
  76. Commercial name                          : Dolby Digital
  77. Codec ID                                 : A_AC3
  78. Duration                                 : 1 h 32 min
  79. Bit rate mode                            : Constant
  80. Bit rate                                 : 640 kb/s
  81. Channel(s)                               : 6 channels
  82. Channel layout                           : L R C LFE Ls Rs
  83. Sampling rate                            : 48.0 kHz
  84. Frame rate                               : 31.250 FPS (1536 SPF)
  85. Compression mode                         : Lossy
  86. Stream size                              : 422 MiB (1%)
  87. Title                                    : Beetlejuice.1988.2160p.BluRay.x264.8bit.SDR.DTS-HD.MA.TrueHD.7.1.Atmos-SWTYBLZ
  88. Language                                 : English
  89. Service kind                             : Complete Main
  90. Default                                  : No
  91. Forced                                   : No
  92. Text #1
  93. ID                                       : 5
  94. Format                                   : UTF-8
  95. Codec ID                                 : S_TEXT/UTF8
  96. Codec ID/Info                            : UTF-8 Plain Text
  97. Duration                                 : 1 h 25 min
  98. Bit rate                                 : 64 b/s
  99. Count of elements                        : 1045
  100. Stream size                              : 40.5 KiB (0%)
  101. Title                                    : English-SRT
  102. Language                                 : English
  103. Default                                  : Yes
  104. Forced                                   : No
  105. Text #2
  106. ID                                       : 6
  107. Format                                   : PGS
  108. Muxing mode                              : zlib
  109. Codec ID                                 : S_HDMV/PGS
  110. Codec ID/Info                            : Picture based subtitle format used on BDs/HD-DVDs
  111. Duration                                 : 1 h 29 min
  112. Bit rate                                 : 35.8 kb/s
  113. Count of elements                        : 2306
  114. Stream size                              : 22.9 MiB (0%)
  115. Title                                    : English-PGS
  116. Language                                 : English
  117. Default                                  : No
  118. Forced                                   : No
  119. Text #3
  120. ID                                       : 7
  121. Format                                   : PGS
  122. Muxing mode                              : zlib
  123. Codec ID                                 : S_HDMV/PGS
  124. Codec ID/Info                            : Picture based subtitle format used on BDs/HD-DVDs
  125. Duration                                 : 1 h 26 min
  126. Bit rate                                 : 40.7 kb/s
  127. Count of elements                        : 2402
  128. Stream size                              : 25.0 MiB (0%)
  129. Title                                    : English-SDH-PGS
  130. Language                                 : English
  131. Default                                  : No
  132. Forced                                   : No
  133. Text #4
  134. ID                                       : 8
  135. Format                                   : PGS
  136. Muxing mode                              : zlib
  137. Codec ID                                 : S_HDMV/PGS
  138. Codec ID/Info                            : Picture based subtitle format used on BDs/HD-DVDs
  139. Duration                                 : 1 h 27 min
  140. Bit rate                                 : 29.6 kb/s
  141. Count of elements                        : 2026
  142. Stream size                              : 18.6 MiB (0%)
  143. Title                                    : Chinese-PGS
  144. Language                                 : Chinese
  145. Default                                  : No
  146. Forced                                   : No
  147. Text #5
  148. ID                                       : 9
  149. Format                                   : PGS
  150. Muxing mode                              : zlib
  151. Codec ID                                 : S_HDMV/PGS
  152. Codec ID/Info                            : Picture based subtitle format used on BDs/HD-DVDs
  153. Duration                                 : 1 h 31 min
  154. Bit rate                                 : 29.0 kb/s
  155. Count of elements                        : 2016
  156. Stream size                              : 19.0 MiB (0%)
  157. Title                                    : Chinese-PGS
  158. Language                                 : Chinese
  159. Default                                  : No
  160. Forced                                   : No
  161. Text #6
  162. ID                                       : 10
  163. Format                                   : PGS
  164. Muxing mode                              : zlib
  165. Codec ID                                 : S_HDMV/PGS
  166. Codec ID/Info                            : Picture based subtitle format used on BDs/HD-DVDs
  167. Duration                                 : 1 h 29 min
  168. Bit rate                                 : 31.0 kb/s
  169. Count of elements                        : 2020
  170. Stream size                              : 19.8 MiB (0%)
  171. Title                                    : Czech-PGS
  172. Language                                 : Czech
  173. Default                                  : No
  174. Forced                                   : No
  175. Text #7
  176. ID                                       : 11
  177. Format                                   : PGS
  178. Muxing mode                              : zlib
  179. Codec ID                                 : S_HDMV/PGS
  180. Codec ID/Info                            : Picture based subtitle format used on BDs/HD-DVDs
  181. Duration                                 : 1 h 25 min
  182. Bit rate                                 : 28.7 kb/s
  183. Count of elements                        : 1958
  184. Stream size                              : 17.6 MiB (0%)
  185. Title                                    : Danish-PGS
  186. Language                                 : Danish
  187. Default                                  : No
  188. Forced                                   : No
  189. Text #8
  190. ID                                       : 12
  191. Format                                   : PGS
  192. Muxing mode                              : zlib
  193. Codec ID                                 : S_HDMV/PGS
  194. Codec ID/Info                            : Picture based subtitle format used on BDs/HD-DVDs
  195. Duration                                 : 1 h 25 min
  196. Bit rate                                 : 30.7 kb/s
  197. Count of elements                        : 1934
  198. Stream size                              : 18.8 MiB (0%)
  199. Title                                    : Dutch-PGS
  200. Language                                 : Dutch
  201. Default                                  : No
  202. Forced                                   : No
  203. Text #9
  204. ID                                       : 13
  205. Format                                   : PGS
  206. Muxing mode                              : zlib
  207. Codec ID                                 : S_HDMV/PGS
  208. Codec ID/Info                            : Picture based subtitle format used on BDs/HD-DVDs
  209. Duration                                 : 1 h 25 min
  210. Bit rate                                 : 26.9 kb/s
  211. Count of elements                        : 1878
  212. Stream size                              : 16.4 MiB (0%)
  213. Title                                    : Finnish-PGS
  214. Language                                 : Finnish
  215. Default                                  : No
  216. Forced                                   : No
  217. Text #10
  218. ID                                       : 14
  219. Format                                   : PGS
  220. Muxing mode                              : zlib
  221. Codec ID                                 : S_HDMV/PGS
  222. Codec ID/Info                            : Picture based subtitle format used on BDs/HD-DVDs
  223. Duration                                 : 1 h 31 min
  224. Bit rate                                 : 28.4 kb/s
  225. Count of elements                        : 1974
  226. Stream size                              : 18.6 MiB (0%)
  227. Title                                    : French-PGS
  228. Language                                 : French
  229. Default                                  : No
  230. Forced                                   : No
  231. Text #11
  232. ID                                       : 15
  233. Format                                   : PGS
  234. Muxing mode                              : zlib
  235. Codec ID                                 : S_HDMV/PGS
  236. Codec ID/Info                            : Picture based subtitle format used on BDs/HD-DVDs
  237. Duration                                 : 1 h 27 min
  238. Bit rate                                 : 35.3 kb/s
  239. Count of elements                        : 2394
  240. Stream size                              : 22.2 MiB (0%)
  241. Title                                    : German-PGS
  242. Language                                 : German
  243. Default                                  : No
  244. Forced                                   : No
  245. Text #12
  246. ID                                       : 16
  247. Format                                   : PGS
  248. Muxing mode                              : zlib
  249. Codec ID                                 : S_HDMV/PGS
  250. Codec ID/Info                            : Picture based subtitle format used on BDs/HD-DVDs
  251. Duration                                 : 1 h 31 min
  252. Bit rate                                 : 26.3 kb/s
  253. Count of elements                        : 1912
  254. Stream size                              : 17.2 MiB (0%)
  255. Title                                    : Italian-PGS
  256. Language                                 : Italian
  257. Default                                  : No
  258. Forced                                   : No
  259. Text #13
  260. ID                                       : 17
  261. Format                                   : PGS
  262. Muxing mode                              : zlib
  263. Codec ID                                 : S_HDMV/PGS
  264. Codec ID/Info                            : Picture based subtitle format used on BDs/HD-DVDs
  265. Duration                                 : 1 h 25 min
  266. Bit rate                                 : 26.9 kb/s
  267. Count of elements                        : 2227
  268. Stream size                              : 16.5 MiB (0%)
  269. Title                                    : Japanese-PGS
  270. Language                                 : Japanese
  271. Default                                  : No
  272. Forced                                   : No
  273. Text #14
  274. ID                                       : 18
  275. Format                                   : PGS
  276. Muxing mode                              : zlib
  277. Codec ID                                 : S_HDMV/PGS
  278. Codec ID/Info                            : Picture based subtitle format used on BDs/HD-DVDs
  279. Duration                                 : 1 h 27 min
  280. Bit rate                                 : 25.7 kb/s
  281. Count of elements                        : 2032
  282. Stream size                              : 16.1 MiB (0%)
  283. Title                                    : Korean-PGS
  284. Language                                 : Korean
  285. Default                                  : No
  286. Forced                                   : No
  287. Text #15
  288. ID                                       : 19
  289. Format                                   : PGS
  290. Muxing mode                              : zlib
  291. Codec ID                                 : S_HDMV/PGS
  292. Codec ID/Info                            : Picture based subtitle format used on BDs/HD-DVDs
  293. Duration                                 : 1 h 25 min
  294. Bit rate                                 : 28.3 kb/s
  295. Count of elements                        : 1988
  296. Stream size                              : 17.3 MiB (0%)
  297. Title                                    : Norwegian-PGS
  298. Language                                 : Norwegian
  299. Default                                  : No
  300. Forced                                   : No
  301. Text #16
  302. ID                                       : 20
  303. Format                                   : PGS
  304. Muxing mode                              : zlib
  305. Codec ID                                 : S_HDMV/PGS
  306. Codec ID/Info                            : Picture based subtitle format used on BDs/HD-DVDs
  307. Duration                                 : 1 h 31 min
  308. Bit rate                                 : 29.1 kb/s
  309. Count of elements                        : 2002
  310. Stream size                              : 19.0 MiB (0%)
  311. Title                                    : Portuguese-PGS
  312. Language                                 : Portuguese
  313. Default                                  : No
  314. Forced                                   : No
  315. Text #17
  316. ID                                       : 21
  317. Format                                   : PGS
  318. Muxing mode                              : zlib
  319. Codec ID                                 : S_HDMV/PGS
  320. Codec ID/Info                            : Picture based subtitle format used on BDs/HD-DVDs
  321. Duration                                 : 1 h 31 min
  322. Bit rate                                 : 24.8 kb/s
  323. Count of elements                        : 1934
  324. Stream size                              : 16.2 MiB (0%)
  325. Title                                    : Portuguese-PGS
  326. Language                                 : Portuguese
  327. Default                                  : No
  328. Forced                                   : No
  329. Text #18
  330. ID                                       : 22
  331. Format                                   : PGS
  332. Muxing mode                              : zlib
  333. Codec ID                                 : S_HDMV/PGS
  334. Codec ID/Info                            : Picture based subtitle format used on BDs/HD-DVDs
  335. Duration                                 : 1 h 27 min
  336. Bit rate                                 : 31.0 kb/s
  337. Count of elements                        : 1986
  338. Stream size                              : 19.5 MiB (0%)
  339. Title                                    : Spanish-PGS
  340. Language                                 : Spanish
  341. Default                                  : No
  342. Forced                                   : No
  343. Text #19
  344. ID                                       : 23
  345. Format                                   : PGS
  346. Muxing mode                              : zlib
  347. Codec ID                                 : S_HDMV/PGS
  348. Codec ID/Info                            : Picture based subtitle format used on BDs/HD-DVDs
  349. Duration                                 : 1 h 31 min
  350. Bit rate                                 : 29.6 kb/s
  351. Count of elements                        : 2020
  352. Stream size                              : 19.4 MiB (0%)
  353. Title                                    : Spanish-PGS
  354. Language                                 : Spanish
  355. Default                                  : No
  356. Forced                                   : No
  357. Text #20
  358. ID                                       : 24
  359. Format                                   : PGS
  360. Muxing mode                              : zlib
  361. Codec ID                                 : S_HDMV/PGS
  362. Codec ID/Info                            : Picture based subtitle format used on BDs/HD-DVDs
  363. Duration                                 : 1 h 25 min
  364. Bit rate                                 : 26.1 kb/s
  365. Count of elements                        : 1918
  366. Stream size                              : 16.0 MiB (0%)
  367. Title                                    : Swedish-PGS
  368. Language                                 : Swedish
  369. Default                                  : No
  370. Forced                                   : No
  371. Text #21
  372. ID                                       : 25
  373. Format                                   : PGS
  374. Muxing mode                              : zlib
  375. Codec ID                                 : S_HDMV/PGS
  376. Codec ID/Info                            : Picture based subtitle format used on BDs/HD-DVDs
  377. Duration                                 : 1 h 25 min
  378. Bit rate                                 : 32.6 kb/s
  379. Count of elements                        : 2022
  380. Stream size                              : 19.9 MiB (0%)
  381. Title                                    : Thai-PGS
  382. Language                                 : Thai
  383. Default                                  : No
  384. Forced                                   : No
  385. Menu
  386. 00:00:00.000                             : en:Overhead Credits
  387. 00:02:38.241                             : en:The Perfect Vacation
  388. 00:05:43.593                             : en:A Wrong Turn
  389. 00:08:11.324                             : en:Recently Deceased
  390. 00:10:55.697                             : en:Perusing The Obits
  391. 00:13:18.506                             : en:Enter The Deetzes
  392. 00:16:07.383                             : en:Ghostly Gambits
  393. 00:19:34.924                             : en:Wormlike Wildlife
  394. 00:22:10.704                             : en:Moving Day
  395. 00:24:52.700                             : en:The Power Of Advertising
  396. 00:26:45.896                             : en:The Afterlife
  397. 00:31:42.317                             : en:Interview With Juno
  398. 00:37:26.494                             : en:Help Me!
  399. 00:38:24.427                             : en:Unspookable
  400. 00:43:54.590                             : en:Beetlejuice
  401. 00:50:45.167                             : en:The Dinner Party (Day-O)
  402. 00:55:01.590                             : en:No-Shows
  403. 00:58:53.363                             : en:Turn On The Juice
  404. 01:01:01.658                             : en:"Make My Millenium"
  405. 01:02:42.592                             : en:Never Trust The Living
  406. 01:04:03.298                             : en:Funny Faces
  407. 01:07:15.949                             : en:Lydia Meets Beetlejuice
  408. 01:11:37.627                             : en:Ortho\'s Seance
  409. 01:17:12.211                             : en:"It\'s Showtime"
  410. 01:19:25.761                             : en:Marriage Of Inconvenience
  411. 01:24:49.876                             : en:High Marks
  412. 01:27:03.468                             : en:Lightheaded
  413. 01:28:20.629                             : en:End Credits
复制代码





                                       
                                       

                                       
                                       
                                       




回复

使用道具 举报

懒得打字嘛,点击右侧快捷回复 【右侧内容,后台自定义】
您需要登录后才可以回帖 登录 | 立即加入

本版积分规则

Archiver|小黑屋| 蓝光电影网 |网站地图

Copyright © 2021 Comsenz Inc. Powered by 蓝光电影网

蓝光电影网

本站内容由用户自主分享和转载自互联网,转载目的在于传递更多信息,并不代表本网赞同其观点和对其真实性负责。

如有侵权、违反国家法律政策行为,请联系我们,我们会第一时间及时清除和处理!

举报反馈邮箱:[email protected]

快速回复 返回顶部 返回列表