找回密码

蓝光电影网

查看: 71|回复: 0

[2160p] 全金属外壳/烈血焚城 Full.Metal.Jacket.1987.2160p.BluRay.x264.8bit.SDR.DTS-HD.MA.5.1-SWTYBLZ 43.87GB

[复制链接]
蓝光币
1082
发表于 2020-9-21 18:43:59 | 显示全部楼层 |阅读模式


◎译  名 全金属外壳/烈血焚城(港)/金甲战士/金甲军队(台)
◎片  名 Full Metal Jacket
◎年  代 1987
◎产  地 英国,美国
◎类  别 剧情 / 战争
◎语  言 英语,越南语
◎上映日期 1987-06-17
◎IMDb评分  8.3/10 from 659981 users
◎IMDb链接  https://www.imdb.com/title/tt0093058/
◎豆瓣评分 8.6/10 from 99218 users
◎豆瓣链接 https://movie.douban.com/subject/1300055/
◎片  长 116 分钟
◎导  演 斯坦利·库布里克 Stanley Kubrick
◎编  剧 斯坦利·库布里克 Stanley Kubrick / 迈克尔·海尔 Michael Herr / 古斯塔夫·哈斯福德 Gustav Hasford
◎主  演 马修·莫迪恩 Matthew Modine
       亚当·鲍德温 Adam Baldwin
       文森特·多诺费奥 Vincent D'Onofrio
       李·厄米 R. Lee Ermey
       道林·海伍德 Dorian Harewood
       艾利斯·霍华德 Arliss Howard
       埃德·欧罗斯 Ed O'Ross
       约翰·特里 John Terry
       蒂姆·科尔切里 Tim Colceri
       布鲁斯·博阿 Bruce Boa
       索尔·洛佩斯 Sal Lopez
       帕皮隆·苏索 Papillon Soo Soo
       马库斯·达米科 Marcus D'Amico
       菲利普·贝利 Philip Bailey
       斯蒂夫·哈德森 Steve Hudson
       David Parry
       克里斯·迈巴赫 Chris Maybach
       斯坦利·库布里克 Stanley Kubrick
       大卫·帕拉菲 David Palffy
       薇薇安·库布里克 Vivian Kubrick
◎标  签 战争 | 越战 | 美国 | 库布里克 | 斯坦利·库布里克 | 美国电影 | StanleyKubrick | 人性
◎简  介


  越战时代,美军大量征兵。多量年轻人应征参军,在新军营接管“残暴”的练习。“傻瓜”比尔活动神经不发财,经常出错而扳连一切人一路受罚。“小丑”(马修?莫迪恩 Matthew Modine 饰)受命帮助比尔,但比尔还是老出毛病,扳连其他人。大师忍无可忍下打了他一顿,比尔今后变得精神模糊,在新军营结业前夜枪杀教官后吞枪自杀。
  
  “小丑”随后分到了军队消息组。他在采访中看到了那时的同伴们都已经变得麻痹、残暴。一次,“小丑”随“牛仔”履利用命时,遭到越共狙击手伏击,“牛仔”亦不幸中弹身亡。众人经过一番搜索,击伤了狙击手。“小丑”发现狙击手竟是一个年轻少女。有人发起留下她挣扎而死,“小丑”在少女“杀了我”的请求声中,扣下了扳机。
◎获奖情况
  第60届奥斯卡金像奖 ?(1988)
  最好改编剧本(提名) 迈克尔·海尔?/?斯坦利·库布里克?/?古斯塔夫·哈斯福德
  
  第12届日本电影学院奖 ?(1989)
  最好外语片(提名)
  1. Video
  2. ID                                       : 1
  3. Format                                   : AVC
  4. Format/Info                              : Advanced Video Codec
  5. Format profile                           : [email protected]
  6. Format settings                          : CABAC / 5 Ref Frames
  7. Format settings, CABAC                   : Yes
  8. Format settings, Reference frames        : 5 frames
  9. Codec ID                                 : V_MPEG4/ISO/AVC
  10. Duration                                 : 1 h 56 min
  11. Bit rate                                 : 50.2 Mb/s
  12. Width                                    : 3 840 pixels
  13. Height                                   : 2 160 pixels
  14. Display aspect ratio                     : 16:9
  15. Frame rate mode                          : Constant
  16. Frame rate                               : 23.976 (24000/1001/189150) FPS
  17. Color space                              : YUV
  18. Chroma subsampling                       : 4:2:0
  19. Bit depth                                : 8 bits
  20. Scan type                                : Progressive
  21. Bits/(Pixel*Frame)                       : 0.252
  22. Stream size                              : 40.9 GiB (94%)
  23. Title                                    : Full.Metal.Jacket.1987.2160p.BluRay.x264.8bit.SDR.DTS-HD.MA.5.1-SWTYBLZ
  24. Writing library                          : x264 core 157 r2935 545de2f
  25. Encoding settings                        : cabac=1 / ref=5 / deblock=1:-1:-1 / analyse=0x3:0x113 / me=umh / subme=10 / psy=1 / psy_rd=1.00:0.15 / mixed_ref=1 / me_range=48 / chroma_me=1 / trellis=2 / 8x8dct=1 / cqm=0 / deadzone=21,11 / fast_pskip=1 / chroma_qp_offset=-3 / threads=48 / lookahead_threads=4 / sliced_threads=0 / nr=0 / decimate=0 / interlaced=0 / bluray_compat=0 / constrained_intra=0 / bframes=3 / b_pyramid=2 / b_adapt=2 / b_bias=0 / direct=3 / weightb=1 / open_gop=0 / weightp=2 / keyint=250 / keyint_min=23 / scenecut=40 / intra_refresh=0 / rc_lookahead=50 / rc=crf / mbtree=1 / crf=24.0 / qcomp=0.60 / qpmin=0 / qpmax=69 / qpstep=4 / ip_ratio=1.40 / aq=1:1.00
  26. Language                                 : English
  27. Default                                  : Yes
  28. Forced                                   : No
  29. Audio #1
  30. ID                                       : 2
  31. Format                                   : DTS XLL
  32. Format/Info                              : Digital Theater Systems
  33. Commercial name                          : DTS-HD Master Audio
  34. Codec ID                                 : A_DTS
  35. Duration                                 : 1 h 56 min
  36. Bit rate mode                            : Variable
  37. Bit rate                                 : 2 297 kb/s
  38. Channel(s)                               : 6 channels
  39. Channel layout                           : C L R Ls Rs LFE
  40. Sampling rate                            : 48.0 kHz
  41. Frame rate                               : 93.750 FPS (512 SPF)
  42. Bit depth                                : 16 bits
  43. Compression mode                         : Lossless
  44. Stream size                              : 1.87 GiB (4%)
  45. Title                                    : Full.Metal.Jacket.1987.2160p.BluRay.x264.8bit.SDR.DTS-HD.MA.5.1-SWTYBLZ
  46. Language                                 : English
  47. Default                                  : Yes
  48. Forced                                   : No
  49. Audio #2
  50. ID                                       : 3
  51. Format                                   : AC-3
  52. Format/Info                              : Audio Coding 3
  53. Commercial name                          : Dolby Digital
  54. Codec ID                                 : A_AC3
  55. Duration                                 : 1 h 56 min
  56. Bit rate mode                            : Constant
  57. Bit rate                                 : 640 kb/s
  58. Channel(s)                               : 6 channels
  59. Channel layout                           : L R C LFE Ls Rs
  60. Sampling rate                            : 48.0 kHz
  61. Frame rate                               : 31.250 FPS (1536 SPF)
  62. Compression mode                         : Lossy
  63. Stream size                              : 534 MiB (1%)
  64. Title                                    : Full.Metal.Jacket.1987.2160p.BluRay.x264.8bit.SDR.DTS-HD.MA.5.1-SWTYBLZ
  65. Language                                 : English
  66. Service kind                             : Complete Main
  67. Default                                  : No
  68. Forced                                   : No
  69. Text #1
  70. ID                                       : 4
  71. Format                                   : UTF-8
  72. Codec ID                                 : S_TEXT/UTF8
  73. Codec ID/Info                            : UTF-8 Plain Text
  74. Duration                                 : 1 h 50 min
  75. Bit rate                                 : 57 b/s
  76. Count of elements                        : 1357
  77. Stream size                              : 46.3 KiB (0%)
  78. Title                                    : English-SRT
  79. Language                                 : English
  80. Default                                  : Yes
  81. Forced                                   : No
  82. Text #2
  83. ID                                       : 5
  84. Format                                   : PGS
  85. Muxing mode                              : zlib
  86. Codec ID                                 : S_HDMV/PGS
  87. Codec ID/Info                            : Picture based subtitle format used on BDs/HD-DVDs
  88. Duration                                 : 1 h 54 min
  89. Bit rate                                 : 30.0 kb/s
  90. Count of elements                        : 2732
  91. Stream size                              : 24.6 MiB (0%)
  92. Title                                    : English-PGS
  93. Language                                 : English
  94. Default                                  : No
  95. Forced                                   : No
  96. Text #3
  97. ID                                       : 6
  98. Format                                   : PGS
  99. Muxing mode                              : zlib
  100. Codec ID                                 : S_HDMV/PGS
  101. Codec ID/Info                            : Picture based subtitle format used on BDs/HD-DVDs
  102. Duration                                 : 1 h 55 min
  103. Bit rate                                 : 36.5 kb/s
  104. Count of elements                        : 3126
  105. Stream size                              : 30.2 MiB (0%)
  106. Title                                    : English-SDH-PGS
  107. Language                                 : English
  108. Default                                  : No
  109. Forced                                   : No
  110. Text #4
  111. ID                                       : 7
  112. Format                                   : PGS
  113. Muxing mode                              : zlib
  114. Codec ID                                 : S_HDMV/PGS
  115. Codec ID/Info                            : Picture based subtitle format used on BDs/HD-DVDs
  116. Duration                                 : 1 h 52 min
  117. Bit rate                                 : 17.8 kb/s
  118. Count of elements                        : 2374
  119. Stream size                              : 14.3 MiB (0%)
  120. Title                                    : Arabic-PGS
  121. Language                                 : Arabic
  122. Default                                  : No
  123. Forced                                   : No
  124. Text #5
  125. ID                                       : 8
  126. Format                                   : PGS
  127. Muxing mode                              : zlib
  128. Codec ID                                 : S_HDMV/PGS
  129. Codec ID/Info                            : Picture based subtitle format used on BDs/HD-DVDs
  130. Duration                                 : 1 h 52 min
  131. Bit rate                                 : 26.3 kb/s
  132. Count of elements                        : 2912
  133. Stream size                              : 21.1 MiB (0%)
  134. Title                                    : Chinese-PGS
  135. Language                                 : Chinese
  136. Default                                  : No
  137. Forced                                   : No
  138. Text #6
  139. ID                                       : 9
  140. Format                                   : PGS
  141. Muxing mode                              : zlib
  142. Codec ID                                 : S_HDMV/PGS
  143. Codec ID/Info                            : Picture based subtitle format used on BDs/HD-DVDs
  144. Duration                                 : 1 h 56 min
  145. Bit rate                                 : 29.2 kb/s
  146. Count of elements                        : 2978
  147. Stream size                              : 24.2 MiB (0%)
  148. Title                                    : Chinese-PGS
  149. Language                                 : Chinese
  150. Default                                  : No
  151. Forced                                   : No
  152. Text #7
  153. ID                                       : 10
  154. Format                                   : PGS
  155. Muxing mode                              : zlib
  156. Codec ID                                 : S_HDMV/PGS
  157. Codec ID/Info                            : Picture based subtitle format used on BDs/HD-DVDs
  158. Duration                                 : 1 h 54 min
  159. Bit rate                                 : 22.0 kb/s
  160. Count of elements                        : 2322
  161. Stream size                              : 18.1 MiB (0%)
  162. Title                                    : Croatian-PGS
  163. Language                                 : Croatian
  164. Default                                  : No
  165. Forced                                   : No
  166. Text #8
  167. ID                                       : 11
  168. Format                                   : PGS
  169. Muxing mode                              : zlib
  170. Codec ID                                 : S_HDMV/PGS
  171. Codec ID/Info                            : Picture based subtitle format used on BDs/HD-DVDs
  172. Duration                                 : 1 h 52 min
  173. Bit rate                                 : 27.0 kb/s
  174. Count of elements                        : 2810
  175. Stream size                              : 21.7 MiB (0%)
  176. Title                                    : Czech-PGS
  177. Language                                 : Czech
  178. Default                                  : No
  179. Forced                                   : No
  180. Text #9
  181. ID                                       : 12
  182. Format                                   : PGS
  183. Muxing mode                              : zlib
  184. Codec ID                                 : S_HDMV/PGS
  185. Codec ID/Info                            : Picture based subtitle format used on BDs/HD-DVDs
  186. Duration                                 : 1 h 56 min
  187. Bit rate                                 : 24.8 kb/s
  188. Count of elements                        : 2310
  189. Stream size                              : 20.6 MiB (0%)
  190. Title                                    : Danish-PGS
  191. Language                                 : Danish
  192. Default                                  : No
  193. Forced                                   : No
  194. Text #10
  195. ID                                       : 13
  196. Format                                   : PGS
  197. Muxing mode                              : zlib
  198. Codec ID                                 : S_HDMV/PGS
  199. Codec ID/Info                            : Picture based subtitle format used on BDs/HD-DVDs
  200. Duration                                 : 1 h 50 min
  201. Bit rate                                 : 26.3 kb/s
  202. Count of elements                        : 2378
  203. Stream size                              : 20.9 MiB (0%)
  204. Title                                    : Dutch-PGS
  205. Language                                 : Dutch
  206. Default                                  : No
  207. Forced                                   : No
  208. Text #11
  209. ID                                       : 14
  210. Format                                   : PGS
  211. Muxing mode                              : zlib
  212. Codec ID                                 : S_HDMV/PGS
  213. Codec ID/Info                            : Picture based subtitle format used on BDs/HD-DVDs
  214. Duration                                 : 1 h 52 min
  215. Bit rate                                 : 22.1 kb/s
  216. Count of elements                        : 2302
  217. Stream size                              : 17.7 MiB (0%)
  218. Title                                    : Finnish-PGS
  219. Language                                 : Finnish
  220. Default                                  : No
  221. Forced                                   : No
  222. Text #12
  223. ID                                       : 15
  224. Format                                   : PGS
  225. Muxing mode                              : zlib
  226. Codec ID                                 : S_HDMV/PGS
  227. Codec ID/Info                            : Picture based subtitle format used on BDs/HD-DVDs
  228. Duration                                 : 1 h 56 min
  229. Bit rate                                 : 25.7 kb/s
  230. Count of elements                        : 2218
  231. Stream size                              : 21.3 MiB (0%)
  232. Title                                    : French-PGS
  233. Language                                 : French
  234. Default                                  : No
  235. Forced                                   : No
  236. Text #13
  237. ID                                       : 16
  238. Format                                   : PGS
  239. Muxing mode                              : zlib
  240. Codec ID                                 : S_HDMV/PGS
  241. Codec ID/Info                            : Picture based subtitle format used on BDs/HD-DVDs
  242. Duration                                 : 1 h 56 min
  243. Bit rate                                 : 23.1 kb/s
  244. Count of elements                        : 2324
  245. Stream size                              : 19.2 MiB (0%)
  246. Title                                    : German-PGS
  247. Language                                 : German
  248. Default                                  : No
  249. Forced                                   : No
  250. Text #14
  251. ID                                       : 17
  252. Format                                   : PGS
  253. Muxing mode                              : zlib
  254. Codec ID                                 : S_HDMV/PGS
  255. Codec ID/Info                            : Picture based subtitle format used on BDs/HD-DVDs
  256. Duration                                 : 1 h 55 min
  257. Bit rate                                 : 33.5 kb/s
  258. Count of elements                        : 3132
  259. Stream size                              : 27.7 MiB (0%)
  260. Title                                    : German-SDH-PGS
  261. Language                                 : German
  262. Default                                  : No
  263. Forced                                   : No
  264. Text #15
  265. ID                                       : 18
  266. Format                                   : PGS
  267. Muxing mode                              : zlib
  268. Codec ID                                 : S_HDMV/PGS
  269. Codec ID/Info                            : Picture based subtitle format used on BDs/HD-DVDs
  270. Duration                                 : 1 h 54 min
  271. Bit rate                                 : 18.2 kb/s
  272. Count of elements                        : 2302
  273. Stream size                              : 14.9 MiB (0%)
  274. Title                                    : Hebrew-PGS
  275. Language                                 : Hebrew
  276. Default                                  : No
  277. Forced                                   : No
  278. Text #16
  279. ID                                       : 19
  280. Format                                   : PGS
  281. Muxing mode                              : zlib
  282. Codec ID                                 : S_HDMV/PGS
  283. Codec ID/Info                            : Picture based subtitle format used on BDs/HD-DVDs
  284. Duration                                 : 1 h 56 min
  285. Bit rate                                 : 24.3 kb/s
  286. Count of elements                        : 2332
  287. Stream size                              : 20.2 MiB (0%)
  288. Title                                    : Hungarian-PGS
  289. Language                                 : Hungarian
  290. Default                                  : No
  291. Forced                                   : No
  292. Text #17
  293. ID                                       : 20
  294. Format                                   : PGS
  295. Muxing mode                              : zlib
  296. Codec ID                                 : S_HDMV/PGS
  297. Codec ID/Info                            : Picture based subtitle format used on BDs/HD-DVDs
  298. Duration                                 : 1 h 56 min
  299. Bit rate                                 : 23.8 kb/s
  300. Count of elements                        : 2296
  301. Stream size                              : 19.7 MiB (0%)
  302. Title                                    : Icelandic-PGS
  303. Language                                 : Icelandic
  304. Default                                  : No
  305. Forced                                   : No
  306. Text #18
  307. ID                                       : 21
  308. Format                                   : PGS
  309. Muxing mode                              : zlib
  310. Codec ID                                 : S_HDMV/PGS
  311. Codec ID/Info                            : Picture based subtitle format used on BDs/HD-DVDs
  312. Duration                                 : 1 h 54 min
  313. Bit rate                                 : 26.0 kb/s
  314. Count of elements                        : 2740
  315. Stream size                              : 21.4 MiB (0%)
  316. Title                                    : Italian-PGS
  317. Language                                 : Italian
  318. Default                                  : No
  319. Forced                                   : No
  320. Text #19
  321. ID                                       : 22
  322. Format                                   : PGS
  323. Muxing mode                              : zlib
  324. Codec ID                                 : S_HDMV/PGS
  325. Codec ID/Info                            : Picture based subtitle format used on BDs/HD-DVDs
  326. Duration                                 : 1 h 55 min
  327. Bit rate                                 : 32.4 kb/s
  328. Count of elements                        : 3218
  329. Stream size                              : 26.8 MiB (0%)
  330. Title                                    : Italian-SDH-PGS
  331. Language                                 : Italian
  332. Default                                  : No
  333. Forced                                   : No
  334. Text #20
  335. ID                                       : 23
  336. Format                                   : PGS
  337. Muxing mode                              : zlib
  338. Codec ID                                 : S_HDMV/PGS
  339. Codec ID/Info                            : Picture based subtitle format used on BDs/HD-DVDs
  340. Duration                                 : 1 h 52 min
  341. Bit rate                                 : 23.6 kb/s
  342. Count of elements                        : 2194
  343. Stream size                              : 18.9 MiB (0%)
  344. Title                                    : Japanese-PGS
  345. Language                                 : Japanese
  346. Default                                  : No
  347. Forced                                   : No
  348. Text #21
  349. ID                                       : 24
  350. Format                                   : PGS
  351. Muxing mode                              : zlib
  352. Codec ID                                 : S_HDMV/PGS
  353. Codec ID/Info                            : Picture based subtitle format used on BDs/HD-DVDs
  354. Duration                                 : 1 h 52 min
  355. Bit rate                                 : 20.5 kb/s
  356. Count of elements                        : 2690
  357. Stream size                              : 16.5 MiB (0%)
  358. Title                                    : Korean-PGS
  359. Language                                 : Korean
  360. Default                                  : No
  361. Forced                                   : No
  362. Text #22
  363. ID                                       : 25
  364. Format                                   : PGS
  365. Muxing mode                              : zlib
  366. Codec ID                                 : S_HDMV/PGS
  367. Codec ID/Info                            : Picture based subtitle format used on BDs/HD-DVDs
  368. Duration                                 : 1 h 50 min
  369. Bit rate                                 : 24.7 kb/s
  370. Count of elements                        : 2244
  371. Stream size                              : 19.6 MiB (0%)
  372. Title                                    : Norwegian-PGS
  373. Language                                 : Norwegian
  374. Default                                  : No
  375. Forced                                   : No
  376. Text #23
  377. ID                                       : 26
  378. Format                                   : PGS
  379. Muxing mode                              : zlib
  380. Codec ID                                 : S_HDMV/PGS
  381. Codec ID/Info                            : Picture based subtitle format used on BDs/HD-DVDs
  382. Duration                                 : 1 h 50 min
  383. Bit rate                                 : 26.9 kb/s
  384. Count of elements                        : 2380
  385. Stream size                              : 21.3 MiB (0%)
  386. Title                                    : Polish-PGS
  387. Language                                 : Polish
  388. Default                                  : No
  389. Forced                                   : No
  390. Text #24
  391. ID                                       : 27
  392. Format                                   : PGS
  393. Muxing mode                              : zlib
  394. Codec ID                                 : S_HDMV/PGS
  395. Codec ID/Info                            : Picture based subtitle format used on BDs/HD-DVDs
  396. Duration                                 : 1 h 56 min
  397. Bit rate                                 : 23.8 kb/s
  398. Count of elements                        : 2080
  399. Stream size                              : 19.8 MiB (0%)
  400. Title                                    : Portuguese-PGS
  401. Language                                 : Portuguese
  402. Default                                  : No
  403. Forced                                   : No
  404. Text #25
  405. ID                                       : 28
  406. Format                                   : PGS
  407. Muxing mode                              : zlib
  408. Codec ID                                 : S_HDMV/PGS
  409. Codec ID/Info                            : Picture based subtitle format used on BDs/HD-DVDs
  410. Duration                                 : 1 h 56 min
  411. Bit rate                                 : 24.5 kb/s
  412. Count of elements                        : 2330
  413. Stream size                              : 20.4 MiB (0%)
  414. Title                                    : Portuguese-PGS
  415. Language                                 : Portuguese
  416. Default                                  : No
  417. Forced                                   : No
  418. Text #26
  419. ID                                       : 29
  420. Format                                   : PGS
  421. Muxing mode                              : zlib
  422. Codec ID                                 : S_HDMV/PGS
  423. Codec ID/Info                            : Picture based subtitle format used on BDs/HD-DVDs
  424. Duration                                 : 1 h 52 min
  425. Bit rate                                 : 24.8 kb/s
  426. Count of elements                        : 2436
  427. Stream size                              : 19.9 MiB (0%)
  428. Title                                    : Romanian-PGS
  429. Language                                 : Romanian
  430. Default                                  : No
  431. Forced                                   : No
  432. Text #27
  433. ID                                       : 30
  434. Format                                   : PGS
  435. Muxing mode                              : zlib
  436. Codec ID                                 : S_HDMV/PGS
  437. Codec ID/Info                            : Picture based subtitle format used on BDs/HD-DVDs
  438. Duration                                 : 1 h 52 min
  439. Bit rate                                 : 28.0 kb/s
  440. Count of elements                        : 2364
  441. Stream size                              : 22.5 MiB (0%)
  442. Title                                    : Spanish-PGS
  443. Language                                 : Spanish
  444. Default                                  : No
  445. Forced                                   : No
  446. Text #28
  447. ID                                       : 31
  448. Format                                   : PGS
  449. Muxing mode                              : zlib
  450. Codec ID                                 : S_HDMV/PGS
  451. Codec ID/Info                            : Picture based subtitle format used on BDs/HD-DVDs
  452. Duration                                 : 1 h 52 min
  453. Bit rate                                 : 32.1 kb/s
  454. Count of elements                        : 2968
  455. Stream size                              : 25.8 MiB (0%)
  456. Title                                    : Spanish-PGS
  457. Language                                 : Spanish
  458. Default                                  : No
  459. Forced                                   : No
  460. Text #29
  461. ID                                       : 32
  462. Format                                   : PGS
  463. Muxing mode                              : zlib
  464. Codec ID                                 : S_HDMV/PGS
  465. Codec ID/Info                            : Picture based subtitle format used on BDs/HD-DVDs
  466. Duration                                 : 1 h 50 min
  467. Bit rate                                 : 24.2 kb/s
  468. Count of elements                        : 2244
  469. Stream size                              : 19.2 MiB (0%)
  470. Title                                    : Swedish-PGS
  471. Language                                 : Swedish
  472. Default                                  : No
  473. Forced                                   : No
  474. Text #30
  475. ID                                       : 33
  476. Format                                   : PGS
  477. Muxing mode                              : zlib
  478. Codec ID                                 : S_HDMV/PGS
  479. Codec ID/Info                            : Picture based subtitle format used on BDs/HD-DVDs
  480. Duration                                 : 1 h 56 min
  481. Bit rate                                 : 26.4 kb/s
  482. Count of elements                        : 2932
  483. Stream size                              : 21.9 MiB (0%)
  484. Title                                    : Thai-PGS
  485. Language                                 : Thai
  486. Default                                  : No
  487. Forced                                   : No
  488. Text #31
  489. ID                                       : 34
  490. Format                                   : PGS
  491. Muxing mode                              : zlib
  492. Codec ID                                 : S_HDMV/PGS
  493. Codec ID/Info                            : Picture based subtitle format used on BDs/HD-DVDs
  494. Duration                                 : 1 h 54 min
  495. Bit rate                                 : 24.7 kb/s
  496. Count of elements                        : 2288
  497. Stream size                              : 20.3 MiB (0%)
  498. Title                                    : Turkish-PGS
  499. Language                                 : Turkish
  500. Default                                  : No
  501. Forced                                   : No
  502. Menu
  503. 00:00:00.000                             : en:Haircut Montage
  504. 00:01:36.930                             : en:Sgt. Hartman Names His Maggots
  505. 00:07:34.579                             : en:Drill
  506. 00:10:01.100                             : en:"This Is My Rifle"
  507. 00:13:21.175                             : en:Obstacle Course
  508. 00:17:41.018                             : en:Joker\'s Got Guts
  509. 00:19:42.515                             : en:Helping Pyle
  510. 00:23:49.970                             : en:The Jelly Donut
  511. 00:28:10.772                             : en:Night Attack
  512. 00:30:17.649                             : en:Motivated Marines
  513. 00:32:27.070                             : en:God And The Corps
  514. 00:33:54.491                             : en:Pyle And His Rifle
  515. 00:38:21.841                             : en:Graduation
  516. 00:40:03.067                             : en:Full Metal Jacket
  517. 00:42:57.742                             : en:Pyle\'s Major Malfunction
  518. 00:45:29.393                             : en:Vietnam
  519. 00:47:52.286                             : en:The Stories We Write
  520. 00:52:02.453                             : en:Base Under Attack
  521. 00:56:36.518                             : en:No Ann-Margret?
  522. 00:58:37.556                             : en:Trigger Happy
  523. 01:01:33.940                             : en:What The Dead Know
  524. 01:03:43.778                             : en:The Word Of God
  525. 01:05:53.950                             : en:Reunion With Cowboy
  526. 01:09:02.847                             : en:Guest Of Honor
  527. 01:10:27.598                             : en:Approaching Hue City
  528. 01:12:22.380                             : en:First Strike
  529. 01:15:38.367                             : en:Vietnam: The Movie
  530. 01:17:50.791                             : en:Words Over The Dead
  531. 01:19:49.451                             : en:Interview Subjects
  532. 01:23:00.058                             : en:Negotiations
  533. 01:25:33.712                             : en:New Squad Leader
  534. 01:28:27.469                             : en:The Sniper
  535. 01:30:55.075                             : en:Two Men Down
  536. 01:35:43.613                             : en:Animal Mother\'s Charge
  537. 01:38:47.338                             : en:Cowboy\'s End
  538. 01:41:46.183                             : en:Getting The Sniper
  539. 01:45:13.140                             : en:"Shoot Me"
  540. 01:51:08.245                             : en:Alive And Not Afraid
  541. 01:52:57.646                             : en:End Credits
复制代码





                                       
                                       

                                       
                                       
                                       




回复

使用道具 举报

懒得打字嘛,点击右侧快捷回复 【右侧内容,后台自定义】
您需要登录后才可以回帖 登录 | 立即加入

本版积分规则

Archiver|小黑屋| 蓝光电影网 |网站地图

Copyright © 2021 Comsenz Inc. Powered by 蓝光电影网

蓝光电影网

本站内容由用户自主分享和转载自互联网,转载目的在于传递更多信息,并不代表本网赞同其观点和对其真实性负责。

如有侵权、违反国家法律政策行为,请联系我们,我们会第一时间及时清除和处理!

举报反馈邮箱:[email protected]

快速回复 返回顶部 返回列表