找回密码

蓝光电影网

查看: 201|回复: 0

[UHD.HEVC] 极度空间/X光人 They.Live.1988.2160p.US.BluRay.REMUX.HEVC.DTS-HD.MA.TrueHD.7.1.Atmos-FGT 56.02GB

[复制链接]
蓝光币
1084
发表于 2021-3-20 12:38:19 | 显示全部楼层 |阅读模式


◎译  名 极端空间/X光人
◎片  名 They Live
◎年  代 1988
◎产  地 美国
◎类  别 行动 / 科幻 / 可骇
◎语  言 英语
◎上映日期 1988-11-04(美国)
◎IMDb评分  7.3/10 from 111322 users
◎IMDb链接  https://www.imdb.com/title/tt0096256/
◎豆瓣评分 7.4/10 from 4984 users
◎豆瓣链接 https://movie.douban.com/subject/1295834/
◎片  长 93 分钟
◎导  演 约翰·卡朋特 John Carpenter
◎编  剧 雷伊·尼尔森 Ray Nelson / 约翰·卡朋特 John Carpenter
◎主  演 罗迪·派彭 Roddy Piper
       凯斯·大卫 Keith David
       梅格·福斯特 Meg Foster
       乔治·“巴克”·弗劳尔 George 'Buck' Flower
       皮特·杰森 Peter Jason
       雷蒙·雅克 Raymond St. Jacques
       Jason Robards III
       John Lawrence
       Wendy Brainard
       Norm Wilson
       Norman Howell
       诺曼·阿尔登 Norman Alden
       Gregory J. Barnett
       Christine Anne Baur
       克里·罗塞尔 Kerry Rossall
       John F. Goff
◎标  签 科幻 | 美国 | 可骇 | 惊悚 | Cult | 1988 | 嘲讽 | 美国电影
◎简  介


  在未来的某个年月,人们的思维已经被政府机构控制,政府机构经过电视信号传输一种催眠电波控制人们的行动。可是一些不宁愿被强权统治的人们研讨出一种眼镜,戴上这类眼镜,电视节目里不苟谈笑的官员就会现出骷髅般的真相……
  1. Video
  2. ID                                       : 1
  3. ID in the original source medium         : 4113 (0x1011)
  4. Format                                   : HEVC
  5. Format/Info                              : High Efficiency Video Coding
  6. Format profile                           : Main [email protected]@High
  7. HDR format                               : SMPTE ST 2086, HDR10 compatible
  8. Codec ID                                 : V_MPEGH/ISO/HEVC
  9. Duration                                 : 1 h 34 min
  10. Bit rate                                 : 72.0 Mb/s
  11. Width                                    : 3 840 pixels
  12. Height                                   : 2 160 pixels
  13. Display aspect ratio                     : 16:9
  14. Frame rate mode                          : Constant
  15. Frame rate                               : 23.976 (24000/1001/189150) FPS
  16. Color space                              : YUV
  17. Chroma subsampling                       : 4:2:0 (Type 2)
  18. Bit depth                                : 10 bits
  19. Bits/(Pixel*Frame)                       : 0.362
  20. Stream size                              : 47.3 GiB (84%)
  21. Language                                 : English
  22. Default                                  : No
  23. Forced                                   : No
  24. Color range                              : Limited
  25. Color primaries                          : BT.2020
  26. Transfer characteristics                 : PQ
  27. Matrix coefficients                      : BT.2020 non-constant
  28. Mastering display color primaries        : Display P3
  29. Mastering display luminance              : min: 0.0001 cd/m2, max: 1000 cd/m2
  30. Maximum Content Light Level              : 1000 cd/m2
  31. Maximum Frame-Average Light Level        : 611 cd/m2
  32. Original source medium                   : Blu-ray

  33. Audio #1
  34. ID                                       : 2
  35. ID in the original source medium         : 4352 (0x1100)
  36. Format                                   : MLP FBA 16-ch
  37. Format/Info                              : Meridian Lossless Packing FBA with 16-channel presentation
  38. Commercial name                          : Dolby TrueHD with Dolby Atmos
  39. Codec ID                                 : A_TRUEHD
  40. Duration                                 : 1 h 34 min
  41. Bit rate mode                            : Variable
  42. Bit rate                                 : 4 333 kb/s
  43. Maximum bit rate                         : 6 969 kb/s
  44. Channel(s)                               : 8 channels
  45. Channel layout                           : L R C LFE Ls Rs Lb Rb
  46. Sampling rate                            : 48.0 kHz
  47. Frame rate                               : 1 200.000 FPS (40 SPF)
  48. Compression mode                         : Lossless
  49. Stream size                              : 2.85 GiB (5%)
  50. Title                                    : TrueHD 7.1 Atmos
  51. Language                                 : English
  52. Default                                  : Yes
  53. Forced                                   : No
  54. Original source medium                   : Blu-ray
  55. Number of dynamic objects                : 11
  56. Bed channel count                        : 1 channel
  57. Bed channel configuration                : LFE

  58. Audio #2
  59. ID                                       : 3
  60. Format                                   : DTS XLL
  61. Format/Info                              : Digital Theater Systems
  62. Commercial name                          : DTS-HD Master Audio
  63. Codec ID                                 : A_DTS
  64. Duration                                 : 1 h 34 min
  65. Bit rate mode                            : Variable
  66. Bit rate                                 : 4 527 kb/s
  67. Channel(s)                               : 8 channels
  68. Channel layout                           : C L R LFE Lb Rb Lss Rss
  69. Sampling rate                            : 48.0 kHz
  70. Frame rate                               : 93.750 FPS (512 SPF)
  71. Bit depth                                : 24 bits
  72. Compression mode                         : Lossless
  73. Stream size                              : 2.97 GiB (5%)
  74. Title                                    : DTS-HD MA 7.1
  75. Language                                 : English
  76. Default                                  : No
  77. Forced                                   : No

  78. Audio #3
  79. ID                                       : 4
  80. ID in the original source medium         : 4352 (0x1100)
  81. Format                                   : AC-3
  82. Format/Info                              : Audio Coding 3
  83. Commercial name                          : Dolby Digital
  84. Codec ID                                 : A_AC3
  85. Duration                                 : 1 h 34 min
  86. Bit rate mode                            : Constant
  87. Bit rate                                 : 640 kb/s
  88. Channel(s)                               : 6 channels
  89. Channel layout                           : L R C LFE Ls Rs
  90. Sampling rate                            : 48.0 kHz
  91. Frame rate                               : 31.250 FPS (1536 SPF)
  92. Compression mode                         : Lossy
  93. Stream size                              : 431 MiB (1%)
  94. Title                                    : DD 5.1
  95. Language                                 : English
  96. Service kind                             : Complete Main
  97. Default                                  : No
  98. Forced                                   : No
  99. Original source medium                   : Blu-ray

  100. Audio #4
  101. ID                                       : 5
  102. ID in the original source medium         : 4354 (0x1102)
  103. Format                                   : DTS XLL
  104. Format/Info                              : Digital Theater Systems
  105. Commercial name                          : DTS-HD Master Audio
  106. Codec ID                                 : A_DTS
  107. Duration                                 : 1 h 34 min
  108. Bit rate mode                            : Variable
  109. Bit rate                                 : 2 103 kb/s
  110. Channel(s)                               : 2 channels
  111. Channel layout                           : L R
  112. Sampling rate                            : 48.0 kHz
  113. Frame rate                               : 93.750 FPS (512 SPF)
  114. Bit depth                                : 24 bits
  115. Compression mode                         : Lossless
  116. Stream size                              : 1.38 GiB (2%)
  117. Title                                    : DTS-HD MA 2.0
  118. Language                                 : English
  119. Default                                  : No
  120. Forced                                   : No
  121. Original source medium                   : Blu-ray

  122. Audio #5
  123. ID                                       : 6
  124. ID in the original source medium         : 4355 (0x1103)
  125. Format                                   : DTS XLL
  126. Format/Info                              : Digital Theater Systems
  127. Commercial name                          : DTS-HD Master Audio
  128. Codec ID                                 : A_DTS
  129. Duration                                 : 1 h 34 min
  130. Bit rate mode                            : Variable
  131. Bit rate                                 : 1 577 kb/s
  132. Channel(s)                               : 2 channels
  133. Channel layout                           : L R
  134. Sampling rate                            : 48.0 kHz
  135. Frame rate                               : 93.750 FPS (512 SPF)
  136. Bit depth                                : 24 bits
  137. Compression mode                         : Lossless
  138. Stream size                              : 1.04 GiB (2%)
  139. Title                                    : DTS-HD MA 2.0
  140. Language                                 : English
  141. Default                                  : No
  142. Forced                                   : No
  143. Original source medium                   : Blu-ray

  144. Text #1
  145. ID                                       : 7
  146. Format                                   : UTF-8
  147. Codec ID                                 : S_TEXT/UTF8
  148. Codec ID/Info                            : UTF-8 Plain Text
  149. Duration                                 : 1 h 27 min
  150. Bit rate                                 : 37 b/s
  151. Count of elements                        : 846
  152. Stream size                              : 24.3 KiB (0%)
  153. Title                                    : English-SRT
  154. Language                                 : English
  155. Default                                  : Yes
  156. Forced                                   : No

  157. Text #2
  158. ID                                       : 8
  159. ID in the original source medium         : 4768 (0x12A0)
  160. Format                                   : PGS
  161. Muxing mode                              : zlib
  162. Codec ID                                 : S_HDMV/PGS
  163. Codec ID/Info                            : Picture based subtitle format used on BDs/HD-DVDs
  164. Duration                                 : 1 h 30 min
  165. Bit rate                                 : 22.4 kb/s
  166. Count of elements                        : 1752
  167. Stream size                              : 14.5 MiB (0%)
  168. Title                                    : English-PGS
  169. Language                                 : English
  170. Default                                  : No
  171. Forced                                   : No
  172. Original source medium                   : Blu-ray

  173. Menu
  174. 00:00:00.000                             : en:Chapter 01
  175. 00:07:45.256                             : en:Chapter 02
  176. 00:15:22.671                             : en:Chapter 03
  177. 00:22:17.085                             : en:Chapter 04
  178. 00:29:44.240                             : en:Chapter 05
  179. 00:35:51.315                             : en:Chapter 06
  180. 00:43:14.592                             : en:Chapter 07
  181. 00:52:22.889                             : en:Chapter 08
  182. 01:01:55.545                             : en:Chapter 09
  183. 01:10:41.570                             : en:Chapter 10
  184. 01:21:38.810                             : en:Chapter 11
  185. 01:28:04.237                             : en:Chapter 12
复制代码



                                       
                                       

                                       
                                       
                                       




回复

使用道具 举报

懒得打字嘛,点击右侧快捷回复 【右侧内容,后台自定义】
您需要登录后才可以回帖 登录 | 立即加入

本版积分规则

Archiver|小黑屋| 蓝光电影网 |网站地图

Copyright © 2021 Comsenz Inc. Powered by 蓝光电影网

蓝光电影网

本站内容由用户自主分享和转载自互联网,转载目的在于传递更多信息,并不代表本网赞同其观点和对其真实性负责。

如有侵权、违反国家法律政策行为,请联系我们,我们会第一时间及时清除和处理!

举报反馈邮箱:[email protected]

快速回复 返回顶部 返回列表