找回密码

蓝光电影网

查看: 45|回复: 0

[2160p] 后窗 Rear.Window.1954.2160p.BluRay.x265.10bit.SDR.DTS-HD.MA.2.0-SWTYBLZ 40.63GB

[复制链接]
蓝光币
1082
发表于 2020-9-15 22:40:37 | 显示全部楼层 |阅读模式


◎译  名 后窗/Alfred Hitchcock's Rear Window/Fenêtre sur cour
◎片  名 Rear Window
◎年  代 1954
◎产  地 美国
◎类  别 悬疑 / 惊悚
◎语  言 英语
◎上映日期 1954-08-01(美国)
◎IMDb评分  8.4/10 from 433304 users
◎IMDb链接  https://www.imdb.com/title/tt0047396/
◎豆瓣评分 8.6/10 from 126731 users
◎豆瓣链接 https://movie.douban.com/subject/1299080/
◎片  长 112 分钟
◎导  演 阿尔弗雷德·希区柯克 Alfred Hitchcock
◎编  剧 约翰·迈克尔·海耶斯 John Michael Hayes / 康奈尔·伍尔里奇 Cornell Woolrich
◎主  演 詹姆斯·斯图尔特 James Stewart
       格蕾丝·凯利 Grace Kelly
       温戴尔·柯瑞 Wendell Corey
       瑟尔玛·瑞特 Thelma Ritter
       雷蒙德·布尔 Raymond Burr
       朱迪思·伊夫林 Judith Evelyn
       罗斯·巴格达萨里安 Ross Bagdasarian
       乔金·达西 Georgine Darcy
       萨拉·伯纳 Sara Berner
       弗兰克·卡迪 Frank Cady
       杰丝琳·法克斯 Jesslyn Fax
       艾琳·温斯顿 Irene Winston
       哈维斯·达文波特 Havis Davenport
       本尼·巴莱特 Benny Bartlett
       马拉·英格丽什 Marla English
       贝丝·弗劳尔斯 Bess Flowers
       阿特·吉尔摩 Art Gilmore
       弗莱德·格兰姆 Fred Graham
       凯丝琳·格兰特 Kathryn Grant
       阿尔弗雷德·希区柯克 Alfred Hitchcock
       迈克·马奥尼 Mike Mahoney
       杰克·斯托尼 Jack Stoney
       吉格·杨 Gig Young
       Rand Harper
       Nick Borgani
       Iphigenie Castiglioni
       Don Dunning
       Harry Landers
       Jonni Paris
       Eddie Parker
       罗伯特·舍曼 Robert Sherman
       Dick Simmons
       Ralph Smiley
       Anthony Warde
◎标  签 希区柯克 | 悬疑 | 美国 | 典范 | 惊悚 | 美国电影 | 1954 | AlfredHitchcock
◎简  介


  摄影师杰弗里斯(詹姆斯·斯图尔特 饰)因站在赛车道中心拍摄,断了左腿,只得在家静养七周。除了保险公司的护士斯特拉(西尔玛·里特 饰)和女友丽莎·卡罗尔·弗里蒙特(格雷斯·凯利 饰)逐日前来顾问,百无聊赖的杰弗里斯只能在窗前闲看邻人们的平常生活以打发时候。劈面公寓的二楼住着人造珠宝倾销员拉尔斯·托瓦尔德(雷蒙德·伯尔 饰)及妻子安娜(艾琳·温斯顿 饰),夫妻之间争持不竭。一个雨夜,杰弗里斯看到拉尔斯提着箱子外出数次。越日,杰弗里斯又看到拉尔斯用报纸包裹一把锯和一把刀。杰弗里斯起了狐疑,他思疑拉尔斯杀戮了安娜并分尸抛弃。但是,杰弗里斯并未目击案发进程,也未见到尸身。那末真相究竟若何呢?杰弗里斯的猜测只是他的臆想吗?为了证实他的猜测,杰弗里斯要若何寻觅证据呢?
◎获奖情况
  第27届奥斯卡金像奖 ?(1955)
  最好导演(提名) 阿尔弗雷德·希区柯克
  最好编剧(提名) 约翰·迈克尔·海耶斯
  彩色片最好摄影(提名) 罗伯特·伯克斯
  最好录音(提名) 洛伦·L·里德
  
  第15届威尼斯电影节 ?(1954)
  主比赛单元金狮奖(提名) 阿尔弗雷德·希区柯克
  1. Video
  2. ID                                       : 1
  3. Format                                   : HEVC
  4. Format/Info                              : High Efficiency Video Coding
  5. Format profile                           : Main [email protected]@High
  6. Codec ID                                 : V_MPEGH/ISO/HEVC
  7. Duration                                 : 1 h 52 min
  8. Bit rate                                 : 49.0 Mb/s
  9. Width                                    : 3 590 pixels
  10. Height                                   : 2 160 pixels
  11. Display aspect ratio                     : 5:3
  12. Frame rate mode                          : Constant
  13. Frame rate                               : 23.976 (24000/1001/189150) FPS
  14. Color space                              : YUV
  15. Chroma subsampling                       : 4:2:0
  16. Bit depth                                : 10 bits
  17. Bits/(Pixel*Frame)                       : 0.263
  18. Stream size                              : 38.5 GiB (95%)
  19. Title                                    : Rear.Window.1954.2160p.BluRay.x265.10bit.SDR.DTS-HD.MA.2.0-SWTYBLZ
  20. Writing library                          : x265 3.0ed72af837053:[Windows][GCC 8.2.0][64 bit] 10bit
  21. Encoding settings                        : cpuid=1111039 / frame-threads=6 / numa-pools=40 / wpp / no-pmode / no-pme / no-psnr / no-ssim / log-level=2 / input-csp=1 / input-res=3590x2160 / interlace=0 / total-frames=161775 / level-idc=51 / high-tier=1 / uhd-bd=0 / ref=3 / no-allow-non-conformance / repeat-headers / annexb / aud / hrd / info / hash=0 / no-temporal-layers / no-open-gop / min-keyint=1 / keyint=24 / gop-lookahead=0 / bframes=4 / b-adapt=2 / b-pyramid / bframe-bias=0 / rc-lookahead=25 / lookahead-slices=4 / scenecut=40 / radl=0 / no-splice / no-intra-refresh / ctu=64 / min-cu-size=8 / no-rect / no-amp / max-tu-size=32 / tu-inter-depth=1 / tu-intra-depth=1 / limit-tu=0 / rdoq-level=0 / dynamic-rd=0.00 / no-ssim-rd / signhide / no-tskip / nr-intra=0 / nr-inter=0 / no-constrained-intra / strong-intra-smoothing / max-merge=2 / limit-refs=3 / no-limit-modes / me=1 / subme=2 / merange=57 / temporal-mvp / weightp / no-weightb / no-analyze-src-pics / deblock=0:0 / no-sao / no-sao-non-deblock / rd=3 / no-early-skip / rskip / no-fast-intra / no-tskip-fast / no-cu-lossless / no-b-intra / no-splitrd-skip / rdpenalty=0 / psy-rd=2.00 / psy-rdoq=0.00 / no-rd-refine / no-lossless / cbqpoffs=0 / crqpoffs=0 / rc=crf / crf=18.0 / qcomp=0.60 / qpstep=4 / stats-write=0 / stats-read=0 / vbv-maxrate=160000 / vbv-bufsize=160000 / vbv-init=0.9 / crf-max=0.0 / crf-min=0.0 / ipratio=1.40 / pbratio=1.30 / aq-mode=1 / aq-strength=1.00 / cutree / zone-count=0 / no-strict-cbr / qg-size=32 / no-rc-grain / qpmax=69 / qpmin=0 / no-const-vbv / sar=1 / overscan=0 / videoformat=5 / range=0 / colorprim=2 / transfer=2 / colormatrix=2 / chromaloc=0 / display-window=0 / max-cll=0,0 / min-luma=0 / max-luma=1023 / log2-max-poc-lsb=8 / vui-timing-info / vui-hrd-info / slices=1 / opt-qp-pps / opt-ref-list-length-pps / no-multi-pass-opt-rps / scenecut-bias=0.05 / no-opt-cu-delta-qp / no-aq-motion / no-hdr / no-hdr-opt / no-dhdr10-opt / no-idr-recovery-sei / analysis-reuse-level=5 / scale-factor=0 / refine-intra=0 / refine-inter=0 / refine-mv=0 / refine-ctu-distortion=0 / no-limit-sao / ctu-info=0 / no-lowpass-dct / refine-analysis-type=0 / copy-pic=1 / max-ausize-factor=1.0 / no-dynamic-refine / no-single-sei / no-hevc-aq / qp-adaptation-range=1.00
  22. Language                                 : English
  23. Default                                  : Yes
  24. Forced                                   : No

  25. Audio #1
  26. ID                                       : 2
  27. ID in the original source medium         : 4352 (0x1100)
  28. Format                                   : DTS XLL
  29. Format/Info                              : Digital Theater Systems
  30. Commercial name                          : DTS-HD Master Audio
  31. Codec ID                                 : A_DTS
  32. Duration                                 : 1 h 52 min
  33. Bit rate mode                            : Variable
  34. Bit rate                                 : 1 771 kb/s
  35. Channel(s)                               : 2 channels
  36. Channel layout                           : L R
  37. Sampling rate                            : 48.0 kHz
  38. Frame rate                               : 93.750 FPS (512 SPF)
  39. Bit depth                                : 24 bits
  40. Compression mode                         : Lossless
  41. Stream size                              : 1.39 GiB (3%)
  42. Title                                    : Rear.Window.1954.2160p.BluRay.x265.10bit.SDR.DTS-HD.MA.2.0-SWTYBLZ
  43. Language                                 : English
  44. Default                                  : Yes
  45. Forced                                   : No
  46. Original source medium                   : Blu-ray

  47. Audio #2
  48. ID                                       : 3
  49. Format                                   : AC-3
  50. Format/Info                              : Audio Coding 3
  51. Commercial name                          : Dolby Digital
  52. Codec ID                                 : A_AC3
  53. Duration                                 : 1 h 52 min
  54. Bit rate mode                            : Constant
  55. Bit rate                                 : 640 kb/s
  56. Channel(s)                               : 2 channels
  57. Channel layout                           : L R
  58. Sampling rate                            : 48.0 kHz
  59. Frame rate                               : 31.250 FPS (1536 SPF)
  60. Compression mode                         : Lossy
  61. Stream size                              : 515 MiB (1%)
  62. Title                                    : Rear.Window.1954.2160p.BluRay.x265.10bit.SDR.DTS-HD.MA.2.0-SWTYBLZ
  63. Language                                 : English
  64. Service kind                             : Complete Main
  65. Default                                  : No
  66. Forced                                   : No

  67. Text #1
  68. ID                                       : 4
  69. Format                                   : UTF-8
  70. Codec ID                                 : S_TEXT/UTF8
  71. Codec ID/Info                            : UTF-8 Plain Text
  72. Duration                                 : 1 h 49 min
  73. Bit rate                                 : 63 b/s
  74. Count of elements                        : 1381
  75. Stream size                              : 51.1 KiB (0%)
  76. Title                                    : English-SRT
  77. Language                                 : English
  78. Default                                  : Yes
  79. Forced                                   : No

  80. Text #2
  81. ID                                       : 5
  82. ID in the original source medium         : 4768 (0x12A0)
  83. Format                                   : PGS
  84. Muxing mode                              : zlib
  85. Codec ID                                 : S_HDMV/PGS
  86. Codec ID/Info                            : Picture based subtitle format used on BDs/HD-DVDs
  87. Duration                                 : 1 h 49 min
  88. Bit rate                                 : 43.7 kb/s
  89. Count of elements                        : 2888
  90. Stream size                              : 34.3 MiB (0%)
  91. Title                                    : English-PGS
  92. Language                                 : English
  93. Default                                  : No
  94. Forced                                   : No
  95. Original source medium                   : Blu-ray

  96. Text #3
  97. ID                                       : 6
  98. ID in the original source medium         : 4769 (0x12A1)
  99. Format                                   : PGS
  100. Muxing mode                              : zlib
  101. Codec ID                                 : S_HDMV/PGS
  102. Codec ID/Info                            : Picture based subtitle format used on BDs/HD-DVDs
  103. Duration                                 : 1 h 49 min
  104. Bit rate                                 : 35.5 kb/s
  105. Count of elements                        : 2432
  106. Stream size                              : 27.9 MiB (0%)
  107. Title                                    : French-PGS
  108. Language                                 : French
  109. Default                                  : No
  110. Forced                                   : No
  111. Original source medium                   : Blu-ray

  112. Text #4
  113. ID                                       : 7
  114. ID in the original source medium         : 4770 (0x12A2)
  115. Format                                   : PGS
  116. Muxing mode                              : zlib
  117. Codec ID                                 : S_HDMV/PGS
  118. Codec ID/Info                            : Picture based subtitle format used on BDs/HD-DVDs
  119. Duration                                 : 1 h 49 min
  120. Bit rate                                 : 40.3 kb/s
  121. Count of elements                        : 2430
  122. Stream size                              : 31.7 MiB (0%)
  123. Title                                    : German-PGS
  124. Language                                 : German
  125. Default                                  : No
  126. Forced                                   : No
  127. Original source medium                   : Blu-ray

  128. Text #5
  129. ID                                       : 8
  130. ID in the original source medium         : 4771 (0x12A3)
  131. Format                                   : PGS
  132. Muxing mode                              : zlib
  133. Codec ID                                 : S_HDMV/PGS
  134. Codec ID/Info                            : Picture based subtitle format used on BDs/HD-DVDs
  135. Duration                                 : 1 h 49 min
  136. Bit rate                                 : 35.9 kb/s
  137. Count of elements                        : 2428
  138. Stream size                              : 28.2 MiB (0%)
  139. Title                                    : Italian-PGS
  140. Language                                 : Italian
  141. Default                                  : No
  142. Forced                                   : No
  143. Original source medium                   : Blu-ray

  144. Text #6
  145. ID                                       : 9
  146. ID in the original source medium         : 4772 (0x12A4)
  147. Format                                   : PGS
  148. Muxing mode                              : zlib
  149. Codec ID                                 : S_HDMV/PGS
  150. Codec ID/Info                            : Picture based subtitle format used on BDs/HD-DVDs
  151. Duration                                 : 1 h 49 min
  152. Bit rate                                 : 38.0 kb/s
  153. Count of elements                        : 2430
  154. Stream size                              : 29.9 MiB (0%)
  155. Title                                    : Spanish-PGS
  156. Language                                 : Spanish
  157. Default                                  : No
  158. Forced                                   : No
  159. Original source medium                   : Blu-ray

  160. Text #7
  161. ID                                       : 10
  162. ID in the original source medium         : 4773 (0x12A5)
  163. Format                                   : PGS
  164. Muxing mode                              : zlib
  165. Codec ID                                 : S_HDMV/PGS
  166. Codec ID/Info                            : Picture based subtitle format used on BDs/HD-DVDs
  167. Duration                                 : 1 h 49 min
  168. Bit rate                                 : 29.1 kb/s
  169. Count of elements                        : 1684
  170. Stream size                              : 22.9 MiB (0%)
  171. Title                                    : Dutch-PGS
  172. Language                                 : Dutch
  173. Default                                  : No
  174. Forced                                   : No
  175. Original source medium                   : Blu-ray

  176. Text #8
  177. ID                                       : 11
  178. ID in the original source medium         : 4774 (0x12A6)
  179. Format                                   : PGS
  180. Muxing mode                              : zlib
  181. Codec ID                                 : S_HDMV/PGS
  182. Codec ID/Info                            : Picture based subtitle format used on BDs/HD-DVDs
  183. Duration                                 : 1 h 49 min
  184. Bit rate                                 : 36.3 kb/s
  185. Count of elements                        : 2430
  186. Stream size                              : 28.5 MiB (0%)
  187. Title                                    : Danish-PGS
  188. Language                                 : Danish
  189. Default                                  : No
  190. Forced                                   : No
  191. Original source medium                   : Blu-ray

  192. Text #9
  193. ID                                       : 12
  194. ID in the original source medium         : 4775 (0x12A7)
  195. Format                                   : PGS
  196. Muxing mode                              : zlib
  197. Codec ID                                 : S_HDMV/PGS
  198. Codec ID/Info                            : Picture based subtitle format used on BDs/HD-DVDs
  199. Duration                                 : 1 h 49 min
  200. Bit rate                                 : 35.1 kb/s
  201. Count of elements                        : 2428
  202. Stream size                              : 27.6 MiB (0%)
  203. Title                                    : Finnish-PGS
  204. Language                                 : Finnish
  205. Default                                  : No
  206. Forced                                   : No
  207. Original source medium                   : Blu-ray

  208. Text #10
  209. ID                                       : 13
  210. ID in the original source medium         : 4776 (0x12A8)
  211. Format                                   : PGS
  212. Muxing mode                              : zlib
  213. Codec ID                                 : S_HDMV/PGS
  214. Codec ID/Info                            : Picture based subtitle format used on BDs/HD-DVDs
  215. Duration                                 : 1 h 49 min
  216. Bit rate                                 : 31.8 kb/s
  217. Count of elements                        : 2430
  218. Stream size                              : 25.0 MiB (0%)
  219. Title                                    : Norwegian-PGS
  220. Language                                 : Norwegian
  221. Default                                  : No
  222. Forced                                   : No
  223. Original source medium                   : Blu-ray

  224. Text #11
  225. ID                                       : 14
  226. ID in the original source medium         : 4777 (0x12A9)
  227. Format                                   : PGS
  228. Muxing mode                              : zlib
  229. Codec ID                                 : S_HDMV/PGS
  230. Codec ID/Info                            : Picture based subtitle format used on BDs/HD-DVDs
  231. Duration                                 : 1 h 49 min
  232. Bit rate                                 : 30.0 kb/s
  233. Count of elements                        : 2430
  234. Stream size                              : 23.6 MiB (0%)
  235. Title                                    : Swedish-PGS
  236. Language                                 : Swedish
  237. Default                                  : No
  238. Forced                                   : No
  239. Original source medium                   : Blu-ray

  240. Text #12
  241. ID                                       : 15
  242. ID in the original source medium         : 4778 (0x12AA)
  243. Format                                   : PGS
  244. Muxing mode                              : zlib
  245. Codec ID                                 : S_HDMV/PGS
  246. Codec ID/Info                            : Picture based subtitle format used on BDs/HD-DVDs
  247. Duration                                 : 1 h 51 min
  248. Bit rate                                 : 35.2 kb/s
  249. Count of elements                        : 2200
  250. Stream size                              : 28.1 MiB (0%)
  251. Title                                    : Czech-PGS
  252. Language                                 : Czech
  253. Default                                  : No
  254. Forced                                   : No
  255. Original source medium                   : Blu-ray

  256. Text #13
  257. ID                                       : 16
  258. ID in the original source medium         : 4779 (0x12AB)
  259. Format                                   : PGS
  260. Muxing mode                              : zlib
  261. Codec ID                                 : S_HDMV/PGS
  262. Codec ID/Info                            : Picture based subtitle format used on BDs/HD-DVDs
  263. Duration                                 : 1 h 49 min
  264. Bit rate                                 : 34.7 kb/s
  265. Count of elements                        : 2432
  266. Stream size                              : 27.3 MiB (0%)
  267. Title                                    : Polish-PGS
  268. Language                                 : Polish
  269. Default                                  : No
  270. Forced                                   : No
  271. Original source medium                   : Blu-ray

  272. Text #14
  273. ID                                       : 17
  274. ID in the original source medium         : 4780 (0x12AC)
  275. Format                                   : PGS
  276. Muxing mode                              : zlib
  277. Codec ID                                 : S_HDMV/PGS
  278. Codec ID/Info                            : Picture based subtitle format used on BDs/HD-DVDs
  279. Duration                                 : 1 h 51 min
  280. Bit rate                                 : 35.6 kb/s
  281. Count of elements                        : 2708
  282. Stream size                              : 28.5 MiB (0%)
  283. Title                                    : Hindi-PGS
  284. Language                                 : Hindi
  285. Default                                  : No
  286. Forced                                   : No
  287. Original source medium                   : Blu-ray

  288. Menu
  289. 00:00:00.000                             : en:Chapter 01
  290. 00:01:36.513                             : en:Chapter 02
  291. 00:08:29.383                             : en:Chapter 03
  292. 00:15:38.479                             : en:Chapter 04
  293. 00:21:26.285                             : en:Chapter 05
  294. 00:27:13.798                             : en:Chapter 06
  295. 00:32:00.919                             : en:Chapter 07
  296. 00:36:38.654                             : en:Chapter 08
  297. 00:43:05.207                             : en:Chapter 09
  298. 00:53:40.258                             : en:Chapter 10
  299. 01:00:52.315                             : en:Chapter 11
  300. 01:12:25.507                             : en:Chapter 12
  301. 01:18:46.138                             : en:Chapter 13
  302. 01:25:06.726                             : en:Chapter 14
  303. 01:37:26.298                             : en:Chapter 15
  304. 01:44:56.081                             : en:Chapter 16
  305. 01:50:36.171                             : en:Chapter 17
复制代码



                                       
                                       

                                       
                                       
                                       




回复

使用道具 举报

懒得打字嘛,点击右侧快捷回复 【右侧内容,后台自定义】
您需要登录后才可以回帖 登录 | 立即加入

本版积分规则

Archiver|小黑屋| 蓝光电影网 |网站地图

Copyright © 2021 Comsenz Inc. Powered by 蓝光电影网

蓝光电影网

本站内容由用户自主分享和转载自互联网,转载目的在于传递更多信息,并不代表本网赞同其观点和对其真实性负责。

如有侵权、违反国家法律政策行为,请联系我们,我们会第一时间及时清除和处理!

举报反馈邮箱:[email protected]

快速回复 返回顶部 返回列表