找回密码

蓝光电影网

查看: 156|回复: 0

[UHD.HEVC] 天魔回魂/沉睡百万年 Prince.of.Darkness.1987.2160p.US.BluRay.REMUX.HEVC.DTS-HD.MA.TrueHD.7.1.Atmos-FGT 60.30GB

[复制链接]
蓝光币
1082
发表于 2021-3-9 18:33:37 | 显示全部楼层 |阅读模式


◎译  名 天魔回魂/沉睡百万年
◎片  名 Prince of Darkness
◎年  代 1987
◎产  地 美国
◎类  别 科幻 / 可骇
◎语  言 英语
◎上映日期 1988-03-11
◎IMDb评分  6.7/10 from 37859 users
◎IMDb链接  https://www.imdb.com/title/tt0093777/
◎豆瓣评分 6.7/10 from 1266 users
◎豆瓣链接 https://movie.douban.com/subject/1294184/
◎片  长 102 分钟
◎导  演 约翰·卡朋特 John Carpenter
◎编  剧 约翰·卡朋特 John Carpenter
◎主  演 唐纳德·普利森斯 Donald Pleasence
       黄自强 Victor Wong
       丽萨·布伦特 Lisa Blount
       詹姆森·帕克 Jameson Parker
       丹尼斯·邓 Dennis Dun
       安妮·玛丽·霍华德 Anne Marie Howard
       德克·布罗克 Dirk Blocker
       杰西·劳伦斯 Jessie Lawrence Ferguson
       皮特·杰森 Peter Jason
       汤姆·布雷 Thom Bray
       乔安娜·默林 Joanna Merlin
◎标  签 可骇 | 美国 | 约翰·卡朋特 | 惊悚 | 科幻 | 1987 | JohnCarpenter | 美国电影
◎简  介


  在洛杉矶一间废置的教堂里,一个牧师召集了一班门生与科学家,研讨他们找到一个盛有绿色液体的玻璃管。这枝玻璃管可以将魔鬼之子开释,终极可以将魔鬼带到人世,天下末日便会到临。
  1. Video
  2. ID                                       : 1
  3. ID in the original source medium         : 4113 (0x1011)
  4. Format                                   : HEVC
  5. Format/Info                              : High Efficiency Video Coding
  6. Format profile                           : Main [email protected]@High
  7. HDR format                               : SMPTE ST 2086, HDR10 compatible
  8. Codec ID                                 : V_MPEGH/ISO/HEVC
  9. Duration                                 : 1 h 41 min
  10. Bit rate                                 : 72.0 Mb/s
  11. Width                                    : 3 840 pixels
  12. Height                                   : 2 160 pixels
  13. Display aspect ratio                     : 16:9
  14. Frame rate mode                          : Constant
  15. Frame rate                               : 23.976 (24000/1001/189150) FPS
  16. Color space                              : YUV
  17. Chroma subsampling                       : 4:2:0 (Type 2)
  18. Bit depth                                : 10 bits
  19. Bits/(Pixel*Frame)                       : 0.362
  20. Stream size                              : 51.1 GiB (85%)
  21. Language                                 : English
  22. Default                                  : No
  23. Forced                                   : No
  24. Color range                              : Limited
  25. Color primaries                          : BT.2020
  26. Transfer characteristics                 : PQ
  27. Matrix coefficients                      : BT.2020 non-constant
  28. Mastering display color primaries        : Display P3
  29. Mastering display luminance              : min: 0.0001 cd/m2, max: 1000 cd/m2
  30. Maximum Content Light Level              : 1000 cd/m2
  31. Maximum Frame-Average Light Level        : 630 cd/m2
  32. Original source medium                   : Blu-ray
  33. Audio #1
  34. ID                                       : 2
  35. ID in the original source medium         : 4352 (0x1100)
  36. Format                                   : MLP FBA 16-ch
  37. Format/Info                              : Meridian Lossless Packing FBA with 16-channel presentation
  38. Commercial name                          : Dolby TrueHD with Dolby Atmos
  39. Codec ID                                 : A_TRUEHD
  40. Duration                                 : 1 h 41 min
  41. Bit rate mode                            : Variable
  42. Bit rate                                 : 4 340 kb/s
  43. Maximum bit rate                         : 6 564 kb/s
  44. Channel(s)                               : 8 channels
  45. Channel layout                           : L R C LFE Ls Rs Lb Rb
  46. Sampling rate                            : 48.0 kHz
  47. Frame rate                               : 1 200.000 FPS (40 SPF)
  48. Compression mode                         : Lossless
  49. Stream size                              : 3.08 GiB (5%)
  50. Title                                    : TrueHD 7.1 Atmos
  51. Language                                 : English
  52. Default                                  : Yes
  53. Forced                                   : No
  54. Original source medium                   : Blu-ray
  55. Number of dynamic objects                : 11
  56. Bed channel count                        : 1 channel
  57. Bed channel configuration                : LFE
  58. Audio #2
  59. ID                                       : 3
  60. Format                                   : DTS XLL
  61. Format/Info                              : Digital Theater Systems
  62. Commercial name                          : DTS-HD Master Audio
  63. Codec ID                                 : A_DTS
  64. Duration                                 : 1 h 41 min
  65. Bit rate mode                            : Variable
  66. Bit rate                                 : 3 905 kb/s
  67. Channel(s)                               : 8 channels
  68. Channel layout                           : C L R LFE Lb Rb Lss Rss
  69. Sampling rate                            : 48.0 kHz
  70. Frame rate                               : 93.750 FPS (512 SPF)
  71. Bit depth                                : 24 bits
  72. Compression mode                         : Lossless
  73. Stream size                              : 2.77 GiB (5%)
  74. Title                                    : DTS-HD ma 7.1
  75. Language                                 : English
  76. Default                                  : No
  77. Forced                                   : No
  78. Audio #3
  79. ID                                       : 4
  80. ID in the original source medium         : 4352 (0x1100)
  81. Format                                   : AC-3
  82. Format/Info                              : Audio Coding 3
  83. Commercial name                          : Dolby Digital
  84. Codec ID                                 : A_AC3
  85. Duration                                 : 1 h 41 min
  86. Bit rate mode                            : Constant
  87. Bit rate                                 : 640 kb/s
  88. Channel(s)                               : 6 channels
  89. Channel layout                           : L R C LFE Ls Rs
  90. Sampling rate                            : 48.0 kHz
  91. Frame rate                               : 31.250 FPS (1536 SPF)
  92. Compression mode                         : Lossy
  93. Stream size                              : 465 MiB (1%)
  94. Title                                    : DD 5.1
  95. Language                                 : English
  96. Service kind                             : Complete Main
  97. Default                                  : No
  98. Forced                                   : No
  99. Original source medium                   : Blu-ray
  100. Audio #4
  101. ID                                       : 5
  102. ID in the original source medium         : 4354 (0x1102)
  103. Format                                   : DTS XLL
  104. Format/Info                              : Digital Theater Systems
  105. Commercial name                          : DTS-HD Master Audio
  106. Codec ID                                 : A_DTS
  107. Duration                                 : 1 h 41 min
  108. Bit rate mode                            : Variable
  109. Bit rate                                 : 2 076 kb/s
  110. Channel(s)                               : 2 channels
  111. Channel layout                           : L R
  112. Sampling rate                            : 48.0 kHz
  113. Frame rate                               : 93.750 FPS (512 SPF)
  114. Bit depth                                : 24 bits
  115. Compression mode                         : Lossless
  116. Stream size                              : 1.47 GiB (2%)
  117. Title                                    : DTS-HD MA 2.0
  118. Language                                 : English
  119. Default                                  : No
  120. Forced                                   : No
  121. Original source medium                   : Blu-ray
  122. Audio #5
  123. ID                                       : 6
  124. ID in the original source medium         : 4355 (0x1103)
  125. Format                                   : DTS XLL
  126. Format/Info                              : Digital Theater Systems
  127. Commercial name                          : DTS-HD Master Audio
  128. Codec ID                                 : A_DTS
  129. Duration                                 : 1 h 41 min
  130. Bit rate mode                            : Variable
  131. Bit rate                                 : 1 981 kb/s
  132. Channel(s)                               : 2 channels
  133. Channel layout                           : L R
  134. Sampling rate                            : 48.0 kHz
  135. Frame rate                               : 93.750 FPS (512 SPF)
  136. Bit depth                                : 24 bits
  137. Compression mode                         : Lossless
  138. Stream size                              : 1.40 GiB (2%)
  139. Title                                    : DTS-HD MA 2.0
  140. Language                                 : English
  141. Default                                  : No
  142. Forced                                   : No
  143. Original source medium                   : Blu-ray
  144. Text #1
  145. ID                                       : 7
  146. Format                                   : UTF-8
  147. Codec ID                                 : S_TEXT/UTF8
  148. Codec ID/Info                            : UTF-8 Plain Text
  149. Duration                                 : 1 h 35 min
  150. Bit rate                                 : 37 b/s
  151. Count of elements                        : 870
  152. Stream size                              : 26.5 KiB (0%)
  153. Title                                    : English-SRT
  154. Language                                 : English
  155. Default                                  : Yes
  156. Forced                                   : No
  157. Text #2
  158. ID                                       : 8
  159. ID in the original source medium         : 4768 (0x12A0)
  160. Format                                   : PGS
  161. Muxing mode                              : zlib
  162. Codec ID                                 : S_HDMV/PGS
  163. Codec ID/Info                            : Picture based subtitle format used on BDs/HD-DVDs
  164. Duration                                 : 1 h 35 min
  165. Bit rate                                 : 24.5 kb/s
  166. Count of elements                        : 2022
  167. Stream size                              : 16.8 MiB (0%)
  168. Title                                    : English-PGS
  169. Language                                 : English
  170. Default                                  : No
  171. Forced                                   : No
  172. Original source medium                   : Blu-ray
  173. Menu
  174. 00:00:00.000                             : en:Chapter 01
  175. 00:10:26.375                             : en:Chapter 02
  176. 00:18:32.986                             : en:Chapter 03
  177. 00:24:59.122                             : en:Chapter 04
  178. 00:33:05.984                             : en:Chapter 05
  179. 00:40:39.228                             : en:Chapter 06
  180. 00:47:52.744                             : en:Chapter 07
  181. 00:55:26.323                             : en:Chapter 08
  182. 01:02:00.717                             : en:Chapter 09
  183. 01:09:37.089                             : en:Chapter 10
  184. 01:17:05.537                             : en:Chapter 11
  185. 01:24:22.682                             : en:Chapter 12
  186. 01:41:30.084                             : en:Chapter 13
复制代码



                                       
                                       

                                       
                                       
                                       




回复

使用道具 举报

懒得打字嘛,点击右侧快捷回复 【右侧内容,后台自定义】
您需要登录后才可以回帖 登录 | 立即加入

本版积分规则

Archiver|小黑屋| 蓝光电影网 |网站地图

Copyright © 2021 Comsenz Inc. Powered by 蓝光电影网

蓝光电影网

本站内容由用户自主分享和转载自互联网,转载目的在于传递更多信息,并不代表本网赞同其观点和对其真实性负责。

如有侵权、违反国家法律政策行为,请联系我们,我们会第一时间及时清除和处理!

举报反馈邮箱:[email protected]

快速回复 返回顶部 返回列表