找回密码

蓝光电影网

查看: 58|回复: 0

[2160p] 守墓屋 The.House.by.the.Cemetery.1981.2160p.BluRay.x265.10bit.SDR.DTS-HD.MA.TrueHD.7.1.Atmos-SWTYBLZ 53.36GB

[复制链接]
蓝光币
1084
发表于 2020-9-15 22:39:10 | 显示全部楼层 |阅读模式


◎译  名 守墓屋/Quella villa accanto al cimitero/Zombie Hell House/天堂三部曲之守墓屋/墓地裏の家/墓边凶宅/半夜鬼追人
◎片  名 The House By The Cemetery
◎年  代 1981
◎产  地 意大利
◎类  别 可骇
◎语  言 意大利语
◎上映日期 1981-08-14
◎IMDb评分  6.2/10 from 12254 users
◎IMDb链接  https://www.imdb.com/title/tt0082966/
◎豆瓣评分 6.3/10 from 384 users
◎豆瓣链接 https://movie.douban.com/subject/2067487/
◎片  长 87 分钟
◎导  演 卢西奥·弗尔兹 Lucio Fulci
◎编  剧 卢西奥·弗尔兹 Lucio Fulci / 达尔达诺·萨凯蒂 Dardano Sacchetti / H·P·洛夫克拉夫特 H.P. Lovecraft
◎主  演 卡特里娜 马科尔 Catriona MacColl
       保罗马 尔科夫 Paolo Malco
       阿尼娅·皮艾洛丽 Ania Pieroni
       达妮埃拉·多里亚 Daniela Doria
       妲歌玛·拉桑德 Dagmar Lassander
       Giovanni Frezza
       卡洛·德梅约 Carlo De Mejo
       西尔维娅·科拉蒂娜 Silvia Collatina
       卢西奥·弗尔兹 Lucio Fulci
◎标  签 可骇 | 意大利 | 惊悚 | 可骇片 | 暴力 | 血腥 | LucioFulci | 1980s
◎简  介


  波士顿郊外的新英格兰,一幢陈腐的屋子烧毁破败。传闻很久之前,一位名叫弗莱德斯坦的科学家住在这里,他曾抓狂杀戮自己的妻女,今后酿成了一个吃人肉为生的可骇僵尸,存活已有上百年。虽然这些传闻有些荒诞无稽,但这幢屋子却是散发着不祥的气味,诸多居住于此的人终极都遭受了不幸。
  
  因工作的原因,小男孩鲍伯(Giovanni Frezzi 饰)随怙恃搬到弗莱德斯坦博士的屋子里。此搬入那天起头,怪事及可骇事务便接连发生。而鲍伯的父亲(Paolo Malco 饰)在研讨疯狂科学家的生平常,也逐步发现了其中的奥秘……
  1. Video
  2. ID                                       : 1
  3. Format                                   : HEVC
  4. Format/Info                              : High Efficiency Video Coding
  5. Format profile                           : Main [email protected]@High
  6. Codec ID                                 : V_MPEGH/ISO/HEVC
  7. Duration                                 : 1 h 26 min
  8. Bit rate                                 : 79.3 Mb/s
  9. Width                                    : 3 840 pixels
  10. Height                                   : 1 642 pixels
  11. Display aspect ratio                     : 2.35:1
  12. Frame rate mode                          : Constant
  13. Frame rate                               : 23.976 (24000/1001/189150) FPS
  14. Color space                              : YUV
  15. Chroma subsampling                       : 4:2:0
  16. Bit depth                                : 10 bits
  17. Bits/(Pixel*Frame)                       : 0.524
  18. Stream size                              : 47.8 GiB (90%)
  19. Title                                    : The.House.by.the.Cemetery.1981.2160p.BluRay.x265.10bit.SDR.DTS-HD.MA.TrueHD.7.1.Atmos-SWTYBLZ
  20. Writing library                          : x265 3.0ed72af837053:[Windows][GCC 8.2.0][64 bit] 10bit
  21. Encoding settings                        : cpuid=1111039 / frame-threads=6 / numa-pools=40 / wpp / no-pmode / no-pme / no-psnr / no-ssim / log-level=2 / input-csp=1 / input-res=3840x1642 / interlace=0 / total-frames=124249 / level-idc=51 / high-tier=1 / uhd-bd=0 / ref=3 / no-allow-non-conformance / repeat-headers / annexb / aud / hrd / info / hash=0 / no-temporal-layers / no-open-gop / min-keyint=1 / keyint=24 / gop-lookahead=0 / bframes=4 / b-adapt=2 / b-pyramid / bframe-bias=0 / rc-lookahead=25 / lookahead-slices=4 / scenecut=40 / radl=0 / no-splice / no-intra-refresh / ctu=64 / min-cu-size=8 / no-rect / no-amp / max-tu-size=32 / tu-inter-depth=1 / tu-intra-depth=1 / limit-tu=0 / rdoq-level=0 / dynamic-rd=0.00 / no-ssim-rd / signhide / no-tskip / nr-intra=0 / nr-inter=0 / no-constrained-intra / strong-intra-smoothing / max-merge=2 / limit-refs=3 / no-limit-modes / me=1 / subme=2 / merange=57 / temporal-mvp / weightp / no-weightb / no-analyze-src-pics / deblock=0:0 / no-sao / no-sao-non-deblock / rd=3 / no-early-skip / rskip / no-fast-intra / no-tskip-fast / no-cu-lossless / no-b-intra / no-splitrd-skip / rdpenalty=0 / psy-rd=2.00 / psy-rdoq=0.00 / no-rd-refine / no-lossless / cbqpoffs=0 / crqpoffs=0 / rc=crf / crf=22.0 / qcomp=0.60 / qpstep=4 / stats-write=0 / stats-read=0 / vbv-maxrate=160000 / vbv-bufsize=160000 / vbv-init=0.9 / crf-max=0.0 / crf-min=0.0 / ipratio=1.40 / pbratio=1.30 / aq-mode=1 / aq-strength=1.00 / cutree / zone-count=0 / no-strict-cbr / qg-size=32 / no-rc-grain / qpmax=69 / qpmin=0 / no-const-vbv / sar=1 / overscan=0 / videoformat=5 / range=0 / colorprim=2 / transfer=2 / colormatrix=2 / chromaloc=0 / display-window=0 / max-cll=0,0 / min-luma=0 / max-luma=1023 / log2-max-poc-lsb=8 / vui-timing-info / vui-hrd-info / slices=1 / opt-qp-pps / opt-ref-list-length-pps / no-multi-pass-opt-rps / scenecut-bias=0.05 / no-opt-cu-delta-qp / no-aq-motion / no-hdr / no-hdr-opt / no-dhdr10-opt / no-idr-recovery-sei / analysis-reuse-level=5 / scale-factor=0 / refine-intra=0 / refine-inter=0 / refine-mv=0 / refine-ctu-distortion=0 / no-limit-sao / ctu-info=0 / no-lowpass-dct / refine-analysis-type=0 / copy-pic=1 / max-ausize-factor=1.0 / no-dynamic-refine / no-single-sei / no-hevc-aq / qp-adaptation-range=1.00
  22. Default                                  : Yes
  23. Forced                                   : No

  24. Audio #1
  25. ID                                       : 2
  26. ID in the original source medium         : 4352 (0x1100)
  27. Format                                   : MLP FBA 16-ch
  28. Format/Info                              : Meridian Lossless Packing FBA with 16-channel presentation
  29. Commercial name                          : Dolby TrueHD with Dolby Atmos
  30. Codec ID                                 : A_TRUEHD
  31. Duration                                 : 1 h 26 min
  32. Bit rate mode                            : Variable
  33. Bit rate                                 : 3 187 kb/s
  34. Maximum bit rate                         : 4 701 kb/s
  35. Channel(s)                               : 8 channels
  36. Channel layout                           : L R C LFE Ls Rs Lb Rb
  37. Sampling rate                            : 48.0 kHz
  38. Frame rate                               : 1 200.000 FPS (40 SPF)
  39. Compression mode                         : Lossless
  40. Stream size                              : 1.92 GiB (4%)
  41. Title                                    : The.House.by.the.Cemetery.1981.2160p.BluRay.x265.10bit.SDR.DTS-HD.MA.TrueHD.7.1.Atmos-SWTYBLZ
  42. Language                                 : English
  43. Default                                  : Yes
  44. Forced                                   : No
  45. Original source medium                   : Blu-ray
  46. Number of dynamic objects                : 11
  47. Bed channel count                        : 1 channel
  48. Bed channel configuration                : LFE

  49. Audio #2
  50. ID                                       : 3
  51. Format                                   : DTS XLL
  52. Format/Info                              : Digital Theater Systems
  53. Commercial name                          : DTS-HD Master Audio
  54. Codec ID                                 : A_DTS
  55. Duration                                 : 1 h 26 min
  56. Bit rate mode                            : Variable
  57. Bit rate                                 : 3 246 kb/s
  58. Channel(s)                               : 8 channels
  59. Channel layout                           : C L R LFE Lb Rb Lss Rss
  60. Sampling rate                            : 48.0 kHz
  61. Frame rate                               : 93.750 FPS (512 SPF)
  62. Bit depth                                : 24 bits
  63. Compression mode                         : Lossless
  64. Stream size                              : 1.96 GiB (4%)
  65. Title                                    : The.House.by.the.Cemetery.1981.2160p.BluRay.x265.10bit.SDR.DTS-HD.MA.TrueHD.7.1.Atmos-SWTYBLZ
  66. Language                                 : English
  67. Default                                  : No
  68. Forced                                   : No

  69. Audio #3
  70. ID                                       : 4
  71. ID in the original source medium         : 4352 (0x1100)
  72. Format                                   : AC-3
  73. Format/Info                              : Audio Coding 3
  74. Commercial name                          : Dolby Digital
  75. Codec ID                                 : A_AC3
  76. Duration                                 : 1 h 26 min
  77. Bit rate mode                            : Constant
  78. Bit rate                                 : 640 kb/s
  79. Channel(s)                               : 6 channels
  80. Channel layout                           : L R C LFE Ls Rs
  81. Sampling rate                            : 48.0 kHz
  82. Frame rate                               : 31.250 FPS (1536 SPF)
  83. Compression mode                         : Lossy
  84. Stream size                              : 395 MiB (1%)
  85. Title                                    : The.House.by.the.Cemetery.1981.2160p.BluRay.x265.10bit.SDR.DTS-HD.MA.TrueHD.7.1.Atmos-SWTYBLZ
  86. Language                                 : English
  87. Service kind                             : Complete Main
  88. Default                                  : No
  89. Forced                                   : No
  90. Original source medium                   : Blu-ray

  91. Audio #4
  92. ID                                       : 5
  93. ID in the original source medium         : 4355 (0x1103)
  94. Format                                   : DTS XLL
  95. Format/Info                              : Digital Theater Systems
  96. Commercial name                          : DTS-HD Master Audio
  97. Codec ID                                 : A_DTS
  98. Duration                                 : 1 h 26 min
  99. Bit rate mode                            : Variable
  100. Bit rate                                 : 1 045 kb/s
  101. Channel(s)                               : 1 channel
  102. Channel layout                           : C
  103. Sampling rate                            : 48.0 kHz
  104. Frame rate                               : 93.750 FPS (512 SPF)
  105. Bit depth                                : 24 bits
  106. Compression mode                         : Lossless
  107. Stream size                              : 645 MiB (1%)
  108. Title                                    : The.House.by.the.Cemetery.1981.2160p.BluRay.x265.10bit.SDR.DTS-HD.MA.TrueHD.7.1.Atmos-SWTYBLZ
  109. Language                                 : Italian
  110. Default                                  : No
  111. Forced                                   : No
  112. Original source medium                   : Blu-ray

  113. Audio #5
  114. ID                                       : 6
  115. Format                                   : AC-3
  116. Format/Info                              : Audio Coding 3
  117. Commercial name                          : Dolby Digital
  118. Codec ID                                 : A_AC3
  119. Duration                                 : 1 h 26 min
  120. Bit rate mode                            : Constant
  121. Bit rate                                 : 640 kb/s
  122. Channel(s)                               : 1 channel
  123. Channel layout                           : C
  124. Sampling rate                            : 48.0 kHz
  125. Frame rate                               : 31.250 FPS (1536 SPF)
  126. Compression mode                         : Lossy
  127. Stream size                              : 395 MiB (1%)
  128. Title                                    : The.House.by.the.Cemetery.1981.2160p.BluRay.x265.10bit.SDR.DTS-HD.MA.TrueHD.7.1.Atmos-SWTYBLZ
  129. Language                                 : Italian
  130. Service kind                             : Complete Main
  131. Default                                  : No
  132. Forced                                   : No

  133. Text #1
  134. ID                                       : 7
  135. Format                                   : UTF-8
  136. Codec ID                                 : S_TEXT/UTF8
  137. Codec ID/Info                            : UTF-8 Plain Text
  138. Duration                                 : 1 h 23 min
  139. Bit rate                                 : 27 b/s
  140. Count of elements                        : 592
  141. Stream size                              : 16.7 KiB (0%)
  142. Title                                    : English-SRT
  143. Language                                 : English
  144. Default                                  : Yes
  145. Forced                                   : No

  146. Text #2
  147. ID                                       : 8
  148. Format                                   : UTF-8
  149. Codec ID                                 : S_TEXT/UTF8
  150. Codec ID/Info                            : UTF-8 Plain Text
  151. Duration                                 : 1 h 22 min
  152. Bit rate                                 : 24 b/s
  153. Count of elements                        : 592
  154. Stream size                              : 14.8 KiB (0%)
  155. Title                                    : English-for-Italian-SRT
  156. Language                                 : English
  157. Default                                  : No
  158. Forced                                   : No

  159. Text #3
  160. ID                                       : 9
  161. ID in the original source medium         : 4768 (0x12A0)
  162. Format                                   : PGS
  163. Muxing mode                              : zlib
  164. Codec ID                                 : S_HDMV/PGS
  165. Codec ID/Info                            : Picture based subtitle format used on BDs/HD-DVDs
  166. Duration                                 : 1 h 23 min
  167. Bit rate                                 : 41.7 kb/s
  168. Count of elements                        : 1816
  169. Stream size                              : 25.0 MiB (0%)
  170. Title                                    : English-PGS
  171. Language                                 : English
  172. Default                                  : No
  173. Forced                                   : No
  174. Original source medium                   : Blu-ray

  175. Text #4
  176. ID                                       : 10
  177. ID in the original source medium         : 4769 (0x12A1)
  178. Format                                   : PGS
  179. Muxing mode                              : zlib
  180. Codec ID                                 : S_HDMV/PGS
  181. Codec ID/Info                            : Picture based subtitle format used on BDs/HD-DVDs
  182. Duration                                 : 1 h 24 min
  183. Bit rate                                 : 30.5 kb/s
  184. Count of elements                        : 1362
  185. Stream size                              : 18.4 MiB (0%)
  186. Title                                    : French-PGS
  187. Language                                 : French
  188. Default                                  : No
  189. Forced                                   : No
  190. Original source medium                   : Blu-ray

  191. Text #5
  192. ID                                       : 11
  193. ID in the original source medium         : 4770 (0x12A2)
  194. Format                                   : PGS
  195. Muxing mode                              : zlib
  196. Codec ID                                 : S_HDMV/PGS
  197. Codec ID/Info                            : Picture based subtitle format used on BDs/HD-DVDs
  198. Duration                                 : 1 h 24 min
  199. Bit rate                                 : 27.3 kb/s
  200. Count of elements                        : 1352
  201. Stream size                              : 16.5 MiB (0%)
  202. Title                                    : Spanish-PGS
  203. Language                                 : Spanish
  204. Default                                  : No
  205. Forced                                   : No
  206. Original source medium                   : Blu-ray

  207. Text #6
  208. ID                                       : 12
  209. ID in the original source medium         : 4771 (0x12A3)
  210. Format                                   : PGS
  211. Muxing mode                              : zlib
  212. Codec ID                                 : S_HDMV/PGS
  213. Codec ID/Info                            : Picture based subtitle format used on BDs/HD-DVDs
  214. Duration                                 : 1 h 22 min
  215. Bit rate                                 : 16.9 kb/s
  216. Count of elements                        : 1192
  217. Stream size                              : 10.0 MiB (0%)
  218. Title                                    : English-for-Italian-PGS
  219. Language                                 : English
  220. Default                                  : No
  221. Forced                                   : No
  222. Original source medium                   : Blu-ray

  223. Menu
  224. 00:00:00.000                             : en:Chapter 01
  225. 00:02:59.929                             : en:Chapter 02
  226. 00:04:14.254                             : en:Chapter 03
  227. 00:07:47.383                             : en:Chapter 04
  228. 00:11:25.267                             : en:Chapter 05
  229. 00:16:11.971                             : en:Chapter 06
  230. 00:21:43.760                             : en:Chapter 07
  231. 00:25:45.168                             : en:Chapter 08
  232. 00:30:24.364                             : en:Chapter 09
  233. 00:35:25.957                             : en:Chapter 10
  234. 00:42:54.572                             : en:Chapter 11
  235. 00:50:12.718                             : en:Chapter 12
  236. 00:58:35.345                             : en:Chapter 13
  237. 01:04:08.845                             : en:Chapter 14
  238. 01:10:13.209                             : en:Chapter 15
  239. 01:15:52.548                             : en:Chapter 16
  240. 01:22:06.254                             : en:Chapter 17
  241. 01:25:05.100                             : en:Chapter 18
复制代码



                                       
                                       

                                       
                                       
                                       




守墓屋 The.House.by.the.Cemetery.1981.2160p.BluRay.x265.10bit.SDR.DTS-HD.MA.TrueHD.7.1.Atmos-SWTYBLZ 53.36GB

The.House.by.the.Cemetery.1981.2160p.BluRay.x265.10bit.SDR.DTS-HD.MA.TrueHD.7.1..zip

135.04 KB, 下载次数: 0, 下载积分: 蓝光币 -2

回复

使用道具 举报

懒得打字嘛,点击右侧快捷回复 【右侧内容,后台自定义】
您需要登录后才可以回帖 登录 | 立即加入

本版积分规则

Archiver|小黑屋| 蓝光电影网 |网站地图

Copyright © 2021 Comsenz Inc. Powered by 蓝光电影网

蓝光电影网

本站内容由用户自主分享和转载自互联网,转载目的在于传递更多信息,并不代表本网赞同其观点和对其真实性负责。

如有侵权、违反国家法律政策行为,请联系我们,我们会第一时间及时清除和处理!

举报反馈邮箱:[email protected]

快速回复 返回顶部 返回列表