找回密码

蓝光电影网

查看: 68|回复: 0

[2160p] 龙虎少年队/逃学黐孖咇 21.Jump.Street.2012.2160p.BluRay.x264.8bit.SDR.DTS-HD.MA.TrueHD.7.1.Atmos-SWTYBLZ 28.76GB

[复制链接]
蓝光币
1084
发表于 2020-9-15 22:20:33 | 显示全部楼层 |阅读模式


◎译  名 龙虎少年队/逃学黐孖咇(港)
◎片  名 21 Jump Street
◎年  代 2012
◎产  地 美国
◎类  别 笑剧 / 行动 / 犯罪
◎语  言 英语
◎上映日期 2012-03-16(美国)
◎IMDb评分  7.2/10 from 502730 users
◎IMDb链接  https://www.imdb.com/title/tt1232829/
◎豆瓣评分 6.9/10 from 30605 users
◎豆瓣链接 https://movie.douban.com/subject/3072889/
◎片  长 109分钟
◎导  演 菲尔·罗德 Phil Lord / 克里斯托弗·米勒 Christopher Miller
◎编  剧 乔纳·希尔 Jonah Hill / 迈克尔·巴考尔 Michael Bacall / 史蒂芬·J·坎内尔 Stephen J. Cannell
◎主  演 乔纳·希尔 Jonah Hill
       查宁·塔图姆 Channing Tatum
       约翰尼·西蒙斯 Johnny Simmons
       戴夫·弗兰科 Dave Franco
       罗伯·里格尔 Rob Riggle
       德雷·戴维斯 DeRay Davis
       艾丽·坎伯尔 Ellie Kemper
       艾斯·库珀 Ice Cube
       布丽·拉尔森 Brie Larson
       约翰尼·德普 Johnny Depp
       达科塔·约翰逊 Dakota Johnson
       彼得·德路易斯 Peter DeLuise
       克里斯·帕内尔 Chris Parnell
       尼克·奥弗曼 Nick Offerman
       霍利·罗宾森·皮特 Holly Robinson Peete
       杰拉尔丁·辛格 Geraldine Singer
       斯宾塞·博德曼 Spencer Boldman
       夏奈尔·塞拉亚 Chanel Celaya
       杰克·约翰逊 Jake M. Johnson
       德克斯·弗拉姆 Dax Flame
       田· 薇拉莉 Valerie Tian
◎标  签 笑剧 | 搞笑 | 行动 | 校园 | 2012 | 青春 | 犯罪 | Channing
◎简  介


  Morton Schmidt(乔纳·希尔 Jonah Hill 饰)和Greg Jenko(查宁·塔图姆 Channing Tatum 饰)两人是同学,后来又在警校重逢,两人相互帮手,终究顺遂从警校结业,成为了好同伴。无法两人只能当交警,抓抓小混混。后来他们加入了警方的卧底缉毒构造“21 Jump Street”,队长Dickon(艾斯·库珀 Ice Cube 饰)告诉他们,他们的使命是重回高中当卧底,找到阿谁向门生供给毒品的人。在黉舍里,他们领会到,门生们的毒品是从一个叫Eric(戴夫·弗兰科 Dave Franco 饰)的人手里来的,但案件并没有这么简单。同时,Schmidt也喜好上Eric的一个朋友Molly,Jenko的化学教员似乎也对他挺感爱好的。到底两人在黉舍的卧底观察会有怎样的成果?
  
  本片改编自同名电视剧。
◎获奖情况
  第21届MTV电影奖 ?(2012)
  MTV电影奖最好笑剧表演(提名) 乔纳·希尔
  MTV电影奖最好打架(提名) 查宁·塔图姆?/?乔纳·希尔
  MTV电影奖最好银幕形象改变(提名) 约翰尼·德普
  MTV电影奖最好音乐
  MTV电影奖最好卡司声势(提名)
  MTV电影奖最好豪杰形象(提名) 查宁·塔图姆
  MTV电影奖最虐心的表演(提名) 罗伯·里格尔?/?乔纳·希尔
  
  第18届美国批评家挑选电影奖 ?(2013)
  最好笑剧片(提名)
  笑剧片最好男配角(提名) 查宁·塔图姆
  
  第14届美国青少年挑选奖 ?(2012)
  最好笑剧片
  最好笑剧片男演员 查宁·塔图姆
  最好笑剧片男演员(提名) 乔纳·希尔
  最好银幕拍档(提名) 查宁·塔图姆?/?乔纳·希尔
  最好电影打架(提名) 查宁·塔图姆?/?乔纳·希尔
  ChoiceMovie:HissyFit(提名) 查宁·塔图姆?/?乔纳·希尔
  1. Video
  2. ID                                       : 1
  3. Format                                   : AVC
  4. Format/Info                              : Advanced Video Codec
  5. Format profile                           : [email protected]
  6. Format settings                          : CABAC / 5 Ref Frames
  7. Format settings, CABAC                   : Yes
  8. Format settings, Reference frames        : 5 frames
  9. Codec ID                                 : V_MPEG4/ISO/AVC
  10. Duration                                 : 1 h 49 min
  11. Bit rate                                 : 29.5 Mb/s
  12. Width                                    : 3 840 pixels
  13. Height                                   : 1 600 pixels
  14. Display aspect ratio                     : 2.40:1
  15. Frame rate mode                          : Constant
  16. Frame rate                               : 23.976 (24000/1001/189150) FPS
  17. Color space                              : YUV
  18. Chroma subsampling                       : 4:2:0
  19. Bit depth                                : 8 bits
  20. Scan type                                : Progressive
  21. Bits/(Pixel*Frame)                       : 0.201
  22. Stream size                              : 22.6 GiB (79%)
  23. Title                                    : 21.Jump.Street.2012.2160p.BluRay.x264.8bit.SDR.DTS-HD.MA.TrueHD.7.1.Atmos-SWTYBLZ
  24. Writing library                          : x264 core 157 r2935 545de2f
  25. Encoding settings                        : cabac=1 / ref=5 / deblock=1:-1:-1 / analyse=0x3:0x113 / me=umh / subme=10 / psy=1 / psy_rd=1.00:0.15 / mixed_ref=1 / me_range=48 / chroma_me=1 / trellis=2 / 8x8dct=1 / cqm=0 / deadzone=21,11 / fast_pskip=1 / chroma_qp_offset=-3 / threads=50 / lookahead_threads=4 / sliced_threads=0 / nr=0 / decimate=0 / interlaced=0 / bluray_compat=0 / constrained_intra=0 / bframes=3 / b_pyramid=2 / b_adapt=2 / b_bias=0 / direct=3 / weightb=1 / open_gop=0 / weightp=2 / keyint=250 / keyint_min=23 / scenecut=40 / intra_refresh=0 / rc_lookahead=50 / rc=crf / mbtree=1 / crf=18.0 / qcomp=0.60 / qpmin=0 / qpmax=69 / qpstep=4 / ip_ratio=1.40 / aq=1:1.00
  26. Default                                  : Yes
  27. Forced                                   : No

  28. Audio #1
  29. ID                                       : 2
  30. ID in the original source medium         : 4352 (0x1100)
  31. Format                                   : MLP FBA 16-ch
  32. Format/Info                              : Meridian Lossless Packing FBA with 16-channel presentation
  33. Commercial name                          : Dolby TrueHD with Dolby Atmos
  34. Codec ID                                 : A_TRUEHD
  35. Duration                                 : 1 h 49 min
  36. Bit rate mode                            : Variable
  37. Bit rate                                 : 2 714 kb/s
  38. Maximum bit rate                         : 4 188 kb/s
  39. Channel(s)                               : 8 channels
  40. Channel layout                           : L R C LFE Ls Rs Lb Rb
  41. Sampling rate                            : 48.0 kHz
  42. Frame rate                               : 1 200.000 FPS (40 SPF)
  43. Compression mode                         : Lossless
  44. Stream size                              : 2.08 GiB (7%)
  45. Title                                    : 21.Jump.Street.2012.2160p.BluRay.x264.8bit.SDR.DTS-HD.MA.TrueHD.7.1.Atmos-SWTYBLZ
  46. Language                                 : English
  47. Default                                  : Yes
  48. Forced                                   : No
  49. Original source medium                   : Blu-ray
  50. Number of dynamic objects                : 11
  51. Bed channel count                        : 1 channel
  52. Bed channel configuration                : LFE

  53. Audio #2
  54. ID                                       : 3
  55. Format                                   : DTS XLL
  56. Format/Info                              : Digital Theater Systems
  57. Commercial name                          : DTS-HD Master Audio
  58. Codec ID                                 : A_DTS
  59. Duration                                 : 1 h 49 min
  60. Bit rate mode                            : Variable
  61. Bit rate                                 : 3 840 kb/s
  62. Channel(s)                               : 8 channels
  63. Channel layout                           : C L R LFE Lb Rb Lss Rss
  64. Sampling rate                            : 48.0 kHz
  65. Frame rate                               : 93.750 FPS (512 SPF)
  66. Bit depth                                : 24 bits
  67. Compression mode                         : Lossless
  68. Stream size                              : 2.94 GiB (10%)
  69. Title                                    : 21.Jump.Street.2012.2160p.BluRay.x264.8bit.SDR.DTS-HD.MA.TrueHD.7.1.Atmos-SWTYBLZ
  70. Language                                 : English
  71. Default                                  : No
  72. Forced                                   : No

  73. Audio #3
  74. ID                                       : 4
  75. ID in the original source medium         : 4352 (0x1100)
  76. Format                                   : AC-3
  77. Format/Info                              : Audio Coding 3
  78. Commercial name                          : Dolby Digital
  79. Codec ID                                 : A_AC3
  80. Duration                                 : 1 h 49 min
  81. Bit rate mode                            : Constant
  82. Bit rate                                 : 640 kb/s
  83. Channel(s)                               : 6 channels
  84. Channel layout                           : L R C LFE Ls Rs
  85. Sampling rate                            : 48.0 kHz
  86. Frame rate                               : 31.250 FPS (1536 SPF)
  87. Compression mode                         : Lossy
  88. Stream size                              : 502 MiB (2%)
  89. Title                                    : 21.Jump.Street.2012.2160p.BluRay.x264.8bit.SDR.DTS-HD.MA.TrueHD.7.1.Atmos-SWTYBLZ
  90. Language                                 : English
  91. Service kind                             : Complete Main
  92. Default                                  : No
  93. Forced                                   : No
  94. Original source medium                   : Blu-ray

  95. Text #1
  96. ID                                       : 5
  97. Format                                   : UTF-8
  98. Codec ID                                 : S_TEXT/UTF8
  99. Codec ID/Info                            : UTF-8 Plain Text
  100. Duration                                 : 1 h 45 min
  101. Bit rate                                 : 86 b/s
  102. Count of elements                        : 1977
  103. Stream size                              : 66.7 KiB (0%)
  104. Title                                    : English-SRT
  105. Language                                 : English
  106. Default                                  : Yes
  107. Forced                                   : No

  108. Text #2
  109. ID                                       : 6
  110. ID in the original source medium         : 4770 (0x12A2)
  111. Format                                   : PGS
  112. Muxing mode                              : zlib
  113. Codec ID                                 : S_HDMV/PGS
  114. Codec ID/Info                            : Picture based subtitle format used on BDs/HD-DVDs
  115. Duration                                 : 1 h 45 min
  116. Bit rate                                 : 50.5 kb/s
  117. Count of elements                        : 3976
  118. Stream size                              : 37.9 MiB (0%)
  119. Title                                    : English-PGS
  120. Language                                 : English
  121. Default                                  : No
  122. Forced                                   : No
  123. Original source medium                   : Blu-ray

  124. Text #3
  125. ID                                       : 7
  126. ID in the original source medium         : 4768 (0x12A0)
  127. Format                                   : PGS
  128. Muxing mode                              : zlib
  129. Codec ID                                 : S_HDMV/PGS
  130. Codec ID/Info                            : Picture based subtitle format used on BDs/HD-DVDs
  131. Duration                                 : 1 h 49 min
  132. Bit rate                                 : 55.7 kb/s
  133. Count of elements                        : 4704
  134. Stream size                              : 43.7 MiB (0%)
  135. Title                                    : English-SDH-PGS
  136. Language                                 : English
  137. Default                                  : No
  138. Forced                                   : No
  139. Original source medium                   : Blu-ray

  140. Text #4
  141. ID                                       : 8
  142. ID in the original source medium         : 4771 (0x12A3)
  143. Format                                   : PGS
  144. Muxing mode                              : zlib
  145. Codec ID                                 : S_HDMV/PGS
  146. Codec ID/Info                            : Picture based subtitle format used on BDs/HD-DVDs
  147. Duration                                 : 1 h 48 min
  148. Bit rate                                 : 20.1 kb/s
  149. Count of elements                        : 3536
  150. Stream size                              : 15.7 MiB (0%)
  151. Title                                    : Arabic-PGS
  152. Language                                 : Arabic
  153. Default                                  : No
  154. Forced                                   : No
  155. Original source medium                   : Blu-ray

  156. Text #5
  157. ID                                       : 9
  158. ID in the original source medium         : 4772 (0x12A4)
  159. Format                                   : PGS
  160. Muxing mode                              : zlib
  161. Codec ID                                 : S_HDMV/PGS
  162. Codec ID/Info                            : Picture based subtitle format used on BDs/HD-DVDs
  163. Duration                                 : 1 h 45 min
  164. Bit rate                                 : 43.3 kb/s
  165. Count of elements                        : 4070
  166. Stream size                              : 32.8 MiB (0%)
  167. Title                                    : Chinese-PGS
  168. Language                                 : Chinese
  169. Default                                  : No
  170. Forced                                   : No
  171. Original source medium                   : Blu-ray

  172. Text #6
  173. ID                                       : 10
  174. ID in the original source medium         : 4773 (0x12A5)
  175. Format                                   : PGS
  176. Muxing mode                              : zlib
  177. Codec ID                                 : S_HDMV/PGS
  178. Codec ID/Info                            : Picture based subtitle format used on BDs/HD-DVDs
  179. Duration                                 : 1 h 45 min
  180. Bit rate                                 : 40.3 kb/s
  181. Count of elements                        : 4070
  182. Stream size                              : 30.5 MiB (0%)
  183. Title                                    : Chinese-PGS
  184. Language                                 : Chinese
  185. Default                                  : No
  186. Forced                                   : No
  187. Original source medium                   : Blu-ray

  188. Text #7
  189. ID                                       : 11
  190. ID in the original source medium         : 4774 (0x12A6)
  191. Format                                   : PGS
  192. Muxing mode                              : zlib
  193. Codec ID                                 : S_HDMV/PGS
  194. Codec ID/Info                            : Picture based subtitle format used on BDs/HD-DVDs
  195. Duration                                 : 1 h 45 min
  196. Bit rate                                 : 39.2 kb/s
  197. Count of elements                        : 4064
  198. Stream size                              : 29.7 MiB (0%)
  199. Title                                    : Czech-PGS
  200. Language                                 : Czech
  201. Default                                  : No
  202. Forced                                   : No
  203. Original source medium                   : Blu-ray

  204. Text #8
  205. ID                                       : 12
  206. ID in the original source medium         : 4775 (0x12A7)
  207. Format                                   : PGS
  208. Muxing mode                              : zlib
  209. Codec ID                                 : S_HDMV/PGS
  210. Codec ID/Info                            : Picture based subtitle format used on BDs/HD-DVDs
  211. Duration                                 : 1 h 48 min
  212. Bit rate                                 : 37.3 kb/s
  213. Count of elements                        : 3616
  214. Stream size                              : 29.0 MiB (0%)
  215. Title                                    : Danish-PGS
  216. Language                                 : Danish
  217. Default                                  : No
  218. Forced                                   : No
  219. Original source medium                   : Blu-ray

  220. Text #9
  221. ID                                       : 13
  222. ID in the original source medium         : 4776 (0x12A8)
  223. Format                                   : PGS
  224. Muxing mode                              : zlib
  225. Codec ID                                 : S_HDMV/PGS
  226. Codec ID/Info                            : Picture based subtitle format used on BDs/HD-DVDs
  227. Duration                                 : 1 h 45 min
  228. Bit rate                                 : 34.0 kb/s
  229. Count of elements                        : 4055
  230. Stream size                              : 25.7 MiB (0%)
  231. Title                                    : Dutch-PGS
  232. Language                                 : Dutch
  233. Default                                  : No
  234. Forced                                   : No
  235. Original source medium                   : Blu-ray

  236. Text #10
  237. ID                                       : 14
  238. ID in the original source medium         : 4777 (0x12A9)
  239. Format                                   : PGS
  240. Muxing mode                              : zlib
  241. Codec ID                                 : S_HDMV/PGS
  242. Codec ID/Info                            : Picture based subtitle format used on BDs/HD-DVDs
  243. Duration                                 : 1 h 45 min
  244. Bit rate                                 : 42.1 kb/s
  245. Count of elements                        : 3086
  246. Stream size                              : 31.9 MiB (0%)
  247. Title                                    : Estonian-PGS
  248. Language                                 : Estonian
  249. Default                                  : No
  250. Forced                                   : No
  251. Original source medium                   : Blu-ray

  252. Text #11
  253. ID                                       : 15
  254. ID in the original source medium         : 4778 (0x12AA)
  255. Format                                   : PGS
  256. Muxing mode                              : zlib
  257. Codec ID                                 : S_HDMV/PGS
  258. Codec ID/Info                            : Picture based subtitle format used on BDs/HD-DVDs
  259. Duration                                 : 1 h 45 min
  260. Bit rate                                 : 42.2 kb/s
  261. Count of elements                        : 4066
  262. Stream size                              : 32.0 MiB (0%)
  263. Title                                    : Finnish-PGS
  264. Language                                 : Finnish
  265. Default                                  : No
  266. Forced                                   : No
  267. Original source medium                   : Blu-ray

  268. Text #12
  269. ID                                       : 16
  270. ID in the original source medium         : 4779 (0x12AB)
  271. Format                                   : PGS
  272. Muxing mode                              : zlib
  273. Codec ID                                 : S_HDMV/PGS
  274. Codec ID/Info                            : Picture based subtitle format used on BDs/HD-DVDs
  275. Duration                                 : 1 h 48 min
  276. Bit rate                                 : 31.7 kb/s
  277. Count of elements                        : 3580
  278. Stream size                              : 24.7 MiB (0%)
  279. Title                                    : French-PGS
  280. Language                                 : French
  281. Default                                  : No
  282. Forced                                   : No
  283. Original source medium                   : Blu-ray

  284. Text #13
  285. ID                                       : 17
  286. ID in the original source medium         : 4780 (0x12AC)
  287. Format                                   : PGS
  288. Muxing mode                              : zlib
  289. Codec ID                                 : S_HDMV/PGS
  290. Codec ID/Info                            : Picture based subtitle format used on BDs/HD-DVDs
  291. Duration                                 : 1 h 48 min
  292. Bit rate                                 : 40.2 kb/s
  293. Count of elements                        : 4170
  294. Stream size                              : 31.3 MiB (0%)
  295. Title                                    : German-PGS
  296. Language                                 : German
  297. Default                                  : No
  298. Forced                                   : No
  299. Original source medium                   : Blu-ray

  300. Text #14
  301. ID                                       : 18
  302. ID in the original source medium         : 4781 (0x12AD)
  303. Format                                   : PGS
  304. Muxing mode                              : zlib
  305. Codec ID                                 : S_HDMV/PGS
  306. Codec ID/Info                            : Picture based subtitle format used on BDs/HD-DVDs
  307. Duration                                 : 1 h 45 min
  308. Bit rate                                 : 41.6 kb/s
  309. Count of elements                        : 3748
  310. Stream size                              : 31.5 MiB (0%)
  311. Title                                    : Greek-PGS
  312. Language                                 : Greek
  313. Default                                  : No
  314. Forced                                   : No
  315. Original source medium                   : Blu-ray

  316. Text #15
  317. ID                                       : 19
  318. ID in the original source medium         : 4782 (0x12AE)
  319. Format                                   : PGS
  320. Muxing mode                              : zlib
  321. Codec ID                                 : S_HDMV/PGS
  322. Codec ID/Info                            : Picture based subtitle format used on BDs/HD-DVDs
  323. Duration                                 : 1 h 48 min
  324. Bit rate                                 : 31.0 kb/s
  325. Count of elements                        : 3420
  326. Stream size                              : 24.1 MiB (0%)
  327. Title                                    : Hebrew-PGS
  328. Language                                 : Hebrew
  329. Default                                  : No
  330. Forced                                   : No
  331. Original source medium                   : Blu-ray

  332. Text #16
  333. ID                                       : 20
  334. ID in the original source medium         : 4783 (0x12AF)
  335. Format                                   : PGS
  336. Muxing mode                              : zlib
  337. Codec ID                                 : S_HDMV/PGS
  338. Codec ID/Info                            : Picture based subtitle format used on BDs/HD-DVDs
  339. Duration                                 : 1 h 45 min
  340. Bit rate                                 : 38.4 kb/s
  341. Count of elements                        : 4090
  342. Stream size                              : 29.0 MiB (0%)
  343. Title                                    : Hindi-PGS
  344. Language                                 : Hindi
  345. Default                                  : No
  346. Forced                                   : No
  347. Original source medium                   : Blu-ray

  348. Text #17
  349. ID                                       : 21
  350. ID in the original source medium         : 4784 (0x12B0)
  351. Format                                   : PGS
  352. Muxing mode                              : zlib
  353. Codec ID                                 : S_HDMV/PGS
  354. Codec ID/Info                            : Picture based subtitle format used on BDs/HD-DVDs
  355. Duration                                 : 1 h 45 min
  356. Bit rate                                 : 46.5 kb/s
  357. Count of elements                        : 4026
  358. Stream size                              : 35.2 MiB (0%)
  359. Title                                    : Hungarian-PGS
  360. Language                                 : Hungarian
  361. Default                                  : No
  362. Forced                                   : No
  363. Original source medium                   : Blu-ray

  364. Text #18
  365. ID                                       : 22
  366. ID in the original source medium         : 4785 (0x12B1)
  367. Format                                   : PGS
  368. Muxing mode                              : zlib
  369. Codec ID                                 : S_HDMV/PGS
  370. Codec ID/Info                            : Picture based subtitle format used on BDs/HD-DVDs
  371. Duration                                 : 1 h 48 min
  372. Bit rate                                 : 46.2 kb/s
  373. Count of elements                        : 3422
  374. Stream size                              : 36.0 MiB (0%)
  375. Title                                    : Indonesian-PGS
  376. Language                                 : Indonesian
  377. Default                                  : No
  378. Forced                                   : No
  379. Original source medium                   : Blu-ray

  380. Text #19
  381. ID                                       : 23
  382. ID in the original source medium         : 4786 (0x12B2)
  383. Format                                   : PGS
  384. Muxing mode                              : zlib
  385. Codec ID                                 : S_HDMV/PGS
  386. Codec ID/Info                            : Picture based subtitle format used on BDs/HD-DVDs
  387. Duration                                 : 1 h 45 min
  388. Bit rate                                 : 43.5 kb/s
  389. Count of elements                        : 4062
  390. Stream size                              : 32.9 MiB (0%)
  391. Title                                    : Italian-PGS
  392. Language                                 : Italian
  393. Default                                  : No
  394. Forced                                   : No
  395. Original source medium                   : Blu-ray

  396. Text #20
  397. ID                                       : 24
  398. ID in the original source medium         : 4787 (0x12B3)
  399. Format                                   : PGS
  400. Muxing mode                              : zlib
  401. Codec ID                                 : S_HDMV/PGS
  402. Codec ID/Info                            : Picture based subtitle format used on BDs/HD-DVDs
  403. Duration                                 : 1 h 45 min
  404. Bit rate                                 : 33.2 kb/s
  405. Count of elements                        : 4078
  406. Stream size                              : 25.1 MiB (0%)
  407. Title                                    : Korean-PGS
  408. Language                                 : Korean
  409. Default                                  : No
  410. Forced                                   : No
  411. Original source medium                   : Blu-ray

  412. Text #21
  413. ID                                       : 25
  414. ID in the original source medium         : 4788 (0x12B4)
  415. Format                                   : PGS
  416. Muxing mode                              : zlib
  417. Codec ID                                 : S_HDMV/PGS
  418. Codec ID/Info                            : Picture based subtitle format used on BDs/HD-DVDs
  419. Duration                                 : 1 h 48 min
  420. Bit rate                                 : 30.0 kb/s
  421. Count of elements                        : 3658
  422. Stream size                              : 23.4 MiB (0%)
  423. Title                                    : Polish-PGS
  424. Language                                 : Polish
  425. Default                                  : No
  426. Forced                                   : No
  427. Original source medium                   : Blu-ray

  428. Text #22
  429. ID                                       : 26
  430. ID in the original source medium         : 4789 (0x12B5)
  431. Format                                   : PGS
  432. Muxing mode                              : zlib
  433. Codec ID                                 : S_HDMV/PGS
  434. Codec ID/Info                            : Picture based subtitle format used on BDs/HD-DVDs
  435. Duration                                 : 1 h 48 min
  436. Bit rate                                 : 41.1 kb/s
  437. Count of elements                        : 3382
  438. Stream size                              : 32.0 MiB (0%)
  439. Title                                    : Portuguese-PGS
  440. Language                                 : Portuguese
  441. Default                                  : No
  442. Forced                                   : No
  443. Original source medium                   : Blu-ray

  444. Text #23
  445. ID                                       : 27
  446. ID in the original source medium         : 4790 (0x12B6)
  447. Format                                   : PGS
  448. Muxing mode                              : zlib
  449. Codec ID                                 : S_HDMV/PGS
  450. Codec ID/Info                            : Picture based subtitle format used on BDs/HD-DVDs
  451. Duration                                 : 1 h 48 min
  452. Bit rate                                 : 37.7 kb/s
  453. Count of elements                        : 2900
  454. Stream size                              : 29.3 MiB (0%)
  455. Title                                    : Romanian-PGS
  456. Language                                 : Romanian
  457. Default                                  : No
  458. Forced                                   : No
  459. Original source medium                   : Blu-ray

  460. Text #24
  461. ID                                       : 28
  462. ID in the original source medium         : 4791 (0x12B7)
  463. Format                                   : PGS
  464. Muxing mode                              : zlib
  465. Codec ID                                 : S_HDMV/PGS
  466. Codec ID/Info                            : Picture based subtitle format used on BDs/HD-DVDs
  467. Duration                                 : 1 h 45 min
  468. Bit rate                                 : 45.4 kb/s
  469. Count of elements                        : 3722
  470. Stream size                              : 34.3 MiB (0%)
  471. Title                                    : Russian-PGS
  472. Language                                 : Russian
  473. Default                                  : No
  474. Forced                                   : No
  475. Original source medium                   : Blu-ray

  476. Text #25
  477. ID                                       : 29
  478. ID in the original source medium         : 4792 (0x12B8)
  479. Format                                   : PGS
  480. Muxing mode                              : zlib
  481. Codec ID                                 : S_HDMV/PGS
  482. Codec ID/Info                            : Picture based subtitle format used on BDs/HD-DVDs
  483. Duration                                 : 1 h 45 min
  484. Bit rate                                 : 38.0 kb/s
  485. Count of elements                        : 3346
  486. Stream size                              : 28.8 MiB (0%)
  487. Title                                    : Serbian-PGS
  488. Language                                 : Serbian
  489. Default                                  : No
  490. Forced                                   : No
  491. Original source medium                   : Blu-ray

  492. Text #26
  493. ID                                       : 30
  494. ID in the original source medium         : 4793 (0x12B9)
  495. Format                                   : PGS
  496. Muxing mode                              : zlib
  497. Codec ID                                 : S_HDMV/PGS
  498. Codec ID/Info                            : Picture based subtitle format used on BDs/HD-DVDs
  499. Duration                                 : 1 h 48 min
  500. Bit rate                                 : 45.4 kb/s
  501. Count of elements                        : 4074
  502. Stream size                              : 35.4 MiB (0%)
  503. Title                                    : Spanish-PGS
  504. Language                                 : Spanish
  505. Default                                  : No
  506. Forced                                   : No
  507. Original source medium                   : Blu-ray

  508. Text #27
  509. ID                                       : 31
  510. ID in the original source medium         : 4793 (0x12B9)
  511. Format                                   : PGS
  512. Muxing mode                              : zlib
  513. Codec ID                                 : S_HDMV/PGS
  514. Codec ID/Info                            : Picture based subtitle format used on BDs/HD-DVDs
  515. Duration                                 : 1 h 48 min
  516. Bit rate                                 : 810 b/s
  517. Count of elements                        : 82
  518. Stream size                              : 646 KiB (0%)
  519. Title                                    : Spanish-PGS
  520. Language                                 : Spanish
  521. Default                                  : No
  522. Forced                                   : No
  523. Original source medium                   : Blu-ray

  524. Text #28
  525. ID                                       : 32
  526. ID in the original source medium         : 4795 (0x12BB)
  527. Format                                   : PGS
  528. Muxing mode                              : zlib
  529. Codec ID                                 : S_HDMV/PGS
  530. Codec ID/Info                            : Picture based subtitle format used on BDs/HD-DVDs
  531. Duration                                 : 1 h 48 min
  532. Bit rate                                 : 30.2 kb/s
  533. Count of elements                        : 2072
  534. Stream size                              : 23.5 MiB (0%)
  535. Title                                    : Swedish-PGS
  536. Language                                 : Swedish
  537. Default                                  : No
  538. Forced                                   : No
  539. Original source medium                   : Blu-ray

  540. Text #29
  541. ID                                       : 33
  542. ID in the original source medium         : 4796 (0x12BC)
  543. Format                                   : PGS
  544. Muxing mode                              : zlib
  545. Codec ID                                 : S_HDMV/PGS
  546. Codec ID/Info                            : Picture based subtitle format used on BDs/HD-DVDs
  547. Duration                                 : 1 h 45 min
  548. Bit rate                                 : 47.7 kb/s
  549. Count of elements                        : 4062
  550. Stream size                              : 36.1 MiB (0%)
  551. Title                                    : Thai-PGS
  552. Language                                 : Thai
  553. Default                                  : No
  554. Forced                                   : No
  555. Original source medium                   : Blu-ray

  556. Text #30
  557. ID                                       : 34
  558. ID in the original source medium         : 4797 (0x12BD)
  559. Format                                   : PGS
  560. Muxing mode                              : zlib
  561. Codec ID                                 : S_HDMV/PGS
  562. Codec ID/Info                            : Picture based subtitle format used on BDs/HD-DVDs
  563. Duration                                 : 1 h 45 min
  564. Bit rate                                 : 39.8 kb/s
  565. Count of elements                        : 3332
  566. Stream size                              : 30.1 MiB (0%)
  567. Title                                    : Turkish-PGS
  568. Language                                 : Turkish
  569. Default                                  : No
  570. Forced                                   : No
  571. Original source medium                   : Blu-ray

  572. Menu
  573. 00:00:00.000                             : en:Chapter 01
  574. 00:08:57.328                             : en:Chapter 02
  575. 00:18:21.683                             : en:Chapter 03
  576. 00:26:14.447                             : en:Chapter 04
  577. 00:33:15.827                             : en:Chapter 05
  578. 00:39:38.626                             : en:Chapter 06
  579. 00:45:53.292                             : en:Chapter 07
  580. 00:50:05.335                             : en:Chapter 08
  581. 00:56:19.501                             : en:Chapter 09
  582. 01:04:42.712                             : en:Chapter 10
  583. 01:09:49.185                             : en:Chapter 11
  584. 01:15:22.684                             : en:Chapter 12
  585. 01:19:53.789                             : en:Chapter 13
  586. 01:25:25.328                             : en:Chapter 14
  587. 01:34:44.470                             : en:Chapter 15
  588. 01:40:50.544                             : en:Chapter 16
复制代码



                                       
                                       

                                       
                                       
                                       




回复

使用道具 举报

懒得打字嘛,点击右侧快捷回复 【右侧内容,后台自定义】
您需要登录后才可以回帖 登录 | 立即加入

本版积分规则

Archiver|小黑屋| 蓝光电影网 |网站地图

Copyright © 2021 Comsenz Inc. Powered by 蓝光电影网

蓝光电影网

本站内容由用户自主分享和转载自互联网,转载目的在于传递更多信息,并不代表本网赞同其观点和对其真实性负责。

如有侵权、违反国家法律政策行为,请联系我们,我们会第一时间及时清除和处理!

举报反馈邮箱:[email protected]

快速回复 返回顶部 返回列表