找回密码

蓝光电影网

查看: 180|回复: 0

[UHD.HEVC] 蝙蝠侠:龙之魂/蝙蝠俠:龍的靈魂 Batman.Soul.of.the.Dragon.2021.2160p.BluRay.REMUX.HEVC.DTS-HD.MA.5.1-FGT 30.70GB

[复制链接]
蓝光币
1084
发表于 2021-1-26 23:45:10 | 显示全部楼层 |阅读模式
[img][/img]

◎译  名 蝙蝠侠:龙之魂/蝙蝠俠:龍的靈魂
◎片  名 Batman: Soul of the Dragon
◎年  代 2021
◎产  地 美国
◎类  别 行动 / 动画 / 冒险
◎语  言 英语
◎上映日期 2021-01-12(美国收集)
◎IMDb评分  5.9/10 from 1409 users
◎IMDb链接  https://www.imdb.com/title/tt12885852/
◎豆瓣评分 6.0/10 from 647 users
◎豆瓣链接 https://movie.douban.com/subject/35181083/
◎片  长 83分钟
◎导  演 刘山姆 Sam Liu
◎编  剧 杰瑞米·亚当斯 Jeremy Adams
◎主  演 杰米·钟 Jamie Chung
       罗宾·阿特金·唐斯 Robin Atkin Downes
       格蕾·德丽斯勒 Grey DeLisle
       艾瑞克·鲍扎 Eric Bauza
       艾丽卡·鲁特雷尔 Erica Luttrell
       帕特里克·赛兹 Patrick Seitz
       克里斯·考克斯 Chris Cox
       马克·达卡斯考斯 Mark Dacascos
       大卫·君图力 David Giuntoli
       吴汉章 James Hong
       胡凯莉 Kelly Hu
       乔什·基顿 Josh Keaton
       迈克尔·加·怀特 Michael Jai White
◎标  签 DC | 动画 | 蝙蝠侠 | 美国 | 2021 | 漫画改编 | 华纳 | 犯罪
◎简  介


  上世纪70年月,一位失落的武术教员是他虔诚而聪明但间隔较远的门生(包括蝙蝠侠)寻觅的工具。
  1. Video
  2. ID                                       : 1
  3. ID in the original source medium         : 4113 (0x1011)
  4. Format                                   : HEVC
  5. Format/Info                              : High Efficiency Video Coding
  6. Format profile                           : Main [email protected]@High
  7. HDR format                               : SMPTE ST 2086, HDR10 compatible
  8. Codec ID                                 : V_MPEGH/ISO/HEVC
  9. Duration                                 : 1 h 22 min
  10. Bit rate                                 : 49.9 Mb/s
  11. Width                                    : 3 840 pixels
  12. Height                                   : 2 160 pixels
  13. Display aspect ratio                     : 16:9
  14. Frame rate mode                          : Constant
  15. Frame rate                               : 23.976 (24000/1001/189150) FPS
  16. Color space                              : YUV
  17. Chroma subsampling                       : 4:2:0 (Type 2)
  18. Bit depth                                : 10 bits
  19. Bits/(Pixel*Frame)                       : 0.251
  20. Stream size                              : 28.8 GiB (94%)
  21. Language                                 : English
  22. Default                                  : No
  23. Forced                                   : No
  24. Color range                              : Limited
  25. Color primaries                          : BT.2020
  26. Transfer characteristics                 : PQ
  27. Matrix coefficients                      : BT.2020 non-constant
  28. Mastering display color primaries        : BT.2020
  29. Mastering display luminance              : min: 0.0050 cd/m2, max: 4000 cd/m2
  30. Maximum Content Light Level              : 479 cd/m2
  31. Maximum Frame-Average Light Level        : 134 cd/m2
  32. Original source medium                   : Blu-ray
  33. Audio #1
  34. ID                                       : 2
  35. ID in the original source medium         : 4352 (0x1100)
  36. Format                                   : DTS XLL
  37. Format/Info                              : Digital Theater Systems
  38. Commercial name                          : DTS-HD Master Audio
  39. Codec ID                                 : A_DTS
  40. Duration                                 : 1 h 22 min
  41. Bit rate mode                            : Variable
  42. Bit rate                                 : 2 374 kb/s
  43. Channel(s)                               : 6 channels
  44. Channel layout                           : C L R Ls Rs LFE
  45. Sampling rate                            : 48.0 kHz
  46. Frame rate                               : 93.750 FPS (512 SPF)
  47. Bit depth                                : 24 bits
  48. Compression mode                         : Lossless
  49. Stream size                              : 1.37 GiB (4%)
  50. Title                                    : DTS-HD MA 5.1
  51. Language                                 : English
  52. Default                                  : Yes
  53. Forced                                   : No
  54. Original source medium                   : Blu-ray
  55. Audio #2
  56. ID                                       : 3
  57. Format                                   : AC-3
  58. Format/Info                              : Audio Coding 3
  59. Commercial name                          : Dolby Digital
  60. Codec ID                                 : A_AC3
  61. Duration                                 : 1 h 22 min
  62. Bit rate mode                            : Constant
  63. Bit rate                                 : 640 kb/s
  64. Channel(s)                               : 6 channels
  65. Channel layout                           : L R C LFE Ls Rs
  66. Sampling rate                            : 48.0 kHz
  67. Frame rate                               : 31.250 FPS (1536 SPF)
  68. Compression mode                         : Lossy
  69. Stream size                              : 379 MiB (1%)
  70. Title                                    : DD 5.1
  71. Language                                 : English
  72. Service kind                             : Complete Main
  73. Default                                  : No
  74. Forced                                   : No
  75. Audio #3
  76. ID                                       : 4
  77. ID in the original source medium         : 4353 (0x1101)
  78. Format                                   : AC-3
  79. Format/Info                              : Audio Coding 3
  80. Commercial name                          : Dolby Digital
  81. Codec ID                                 : A_AC3
  82. Duration                                 : 1 h 22 min
  83. Bit rate mode                            : Constant
  84. Bit rate                                 : 192 kb/s
  85. Channel(s)                               : 2 channels
  86. Channel layout                           : L R
  87. Sampling rate                            : 48.0 kHz
  88. Frame rate                               : 31.250 FPS (1536 SPF)
  89. Compression mode                         : Lossy
  90. Stream size                              : 114 MiB (0%)
  91. Title                                    : DD 2.0
  92. Language                                 : Spanish
  93. Service kind                             : Complete Main
  94. Default                                  : No
  95. Forced                                   : No
  96. Original source medium                   : Blu-ray
  97. Text #1
  98. ID                                       : 5
  99. Format                                   : UTF-8
  100. Codec ID                                 : S_TEXT/UTF8
  101. Codec ID/Info                            : UTF-8 Plain Text
  102. Duration                                 : 1 h 19 min
  103. Bit rate                                 : 35 b/s
  104. Count of elements                        : 791
  105. Stream size                              : 20.6 KiB (0%)
  106. Title                                    : English-SRT
  107. Language                                 : English
  108. Default                                  : Yes
  109. Forced                                   : No
  110. Text #2
  111. ID                                       : 6
  112. ID in the original source medium         : 4768 (0x12A0)
  113. Format                                   : PGS
  114. Muxing mode                              : zlib
  115. Codec ID                                 : S_HDMV/PGS
  116. Codec ID/Info                            : Picture based subtitle format used on BDs/HD-DVDs
  117. Duration                                 : 1 h 19 min
  118. Bit rate                                 : 24.7 kb/s
  119. Count of elements                        : 1892
  120. Stream size                              : 14.0 MiB (0%)
  121. Title                                    : English-PGS
  122. Language                                 : English
  123. Default                                  : No
  124. Forced                                   : No
  125. Original source medium                   : Blu-ray
  126. Text #3
  127. ID                                       : 7
  128. ID in the original source medium         : 4769 (0x12A1)
  129. Format                                   : PGS
  130. Muxing mode                              : zlib
  131. Codec ID                                 : S_HDMV/PGS
  132. Codec ID/Info                            : Picture based subtitle format used on BDs/HD-DVDs
  133. Duration                                 : 1 h 21 min
  134. Bit rate                                 : 23.4 kb/s
  135. Count of elements                        : 1606
  136. Stream size                              : 13.7 MiB (0%)
  137. Title                                    : French-PGS
  138. Language                                 : French
  139. Default                                  : No
  140. Forced                                   : No
  141. Original source medium                   : Blu-ray
  142. Text #4
  143. ID                                       : 8
  144. ID in the original source medium         : 4770 (0x12A2)
  145. Format                                   : PGS
  146. Muxing mode                              : zlib
  147. Codec ID                                 : S_HDMV/PGS
  148. Codec ID/Info                            : Picture based subtitle format used on BDs/HD-DVDs
  149. Duration                                 : 1 h 17 min
  150. Bit rate                                 : 198 b/s
  151. Count of elements                        : 14
  152. Stream size                              : 112 KiB (0%)
  153. Title                                    : Spanish-PGS
  154. Language                                 : Spanish
  155. Default                                  : No
  156. Forced                                   : No
  157. Original source medium                   : Blu-ray
  158. Menu
  159. 00:00:00.000                             : en:Chapter 01
  160. 00:05:18.901                             : en:Chapter 02
  161. 00:12:03.222                             : en:Chapter 03
  162. 00:19:55.527                             : en:Chapter 04
  163. 00:26:51.735                             : en:Chapter 05
  164. 00:31:52.577                             : en:Chapter 06
  165. 00:38:59.253                             : en:Chapter 07
  166. 00:46:00.132                             : en:Chapter 08
  167. 00:52:09.334                             : en:Chapter 09
  168. 01:00:06.311                             : en:Chapter 10
  169. 01:08:15.674                             : en:Chapter 11
  170. 01:14:33.343                             : en:Chapter 12
  171. 01:20:04.174                             : en:Chapter 13
复制代码



                                       
                                       

                                       
                                       
                                       




回复

使用道具 举报

懒得打字嘛,点击右侧快捷回复 【右侧内容,后台自定义】
您需要登录后才可以回帖 登录 | 立即加入

本版积分规则

Archiver|小黑屋| 蓝光电影网 |网站地图

Copyright © 2021 Comsenz Inc. Powered by 蓝光电影网

蓝光电影网

本站内容由用户自主分享和转载自互联网,转载目的在于传递更多信息,并不代表本网赞同其观点和对其真实性负责。

如有侵权、违反国家法律政策行为,请联系我们,我们会第一时间及时清除和处理!

举报反馈邮箱:[email protected]

快速回复 返回顶部 返回列表