找回密码

蓝光电影网

查看: 171|回复: 0

[UHD.HEVC] 死亡幻觉/唐尼?达克 Donnie.Darko.2001.DC.2160p.BluRay.REMUX.HEVC.DTS-HD.MA.5.1-FGT 79.08GB

[复制链接]
蓝光币
1084
发表于 2021-5-13 15:30:55 | 显示全部楼层 |阅读模式


◎译  名 灭亡幻觉/唐尼?达克/怵目惊魂28天(台)
◎片  名 Donnie Darko
◎年  代 2001
◎产  地 美国
◎类  别 剧情 / 科幻 / 悬疑 / 惊悚
◎语  言 英语
◎上映日期 2001-01-19(圣丹斯电影节) / 2001-10-26(美国)
◎IMDb评分  8/10 from 749356 users
◎IMDb链接  https://www.imdb.com/title/tt0246578/
◎豆瓣评分 7.3/10 from 74140 users
◎豆瓣链接 https://movie.douban.com/subject/1306662/
◎片  长 113分钟
◎导  演 理查德·凯利 Richard Kelly
◎编  剧 理查德·凯利 Richard Kelly
◎主  演 杰克·吉伦哈尔 Jake Gyllenhaal
       霍尔姆斯·奥斯本 Holmes Osborne
       玛吉·吉伦哈尔 Maggie Gyllenhaal
       黛维·切斯 Daveigh Chase
       玛丽·麦克唐纳 Mary McDonnell
       詹姆斯·杜瓦尔 James Duval
       亚瑟·塔谢尔 Arthur Taxier
       帕特里克·斯威兹 Patrick Swayze
       大卫·圣.詹姆斯 David St. James
       Tom Tangen
       茱莲妮·普迪 Jolene Purdy
       Alex Greenwald
       贝丝·格兰特 Beth Grant
       吉娜·马隆 Jena Malone
       塞斯·罗根 Seth Rogen
       诺亚·怀尔 Noah Wyle
       德鲁·巴里摩尔 Drew Barrymore
       Kristina Malota
       Marina Malota
       泰勒·佩克 Tiler Peck
       Patience Cleveland
       凯瑟琳·罗斯 Katharine Ross
       Jack Salvatore Jr.
       李韦弗 Lee Weaver
       菲利斯·里昂斯 Phyllis Lyons
       阿什丽·提斯代尔 Ashley Tisdale
       杰瑞·特雷纳 Jerry Trainor
       琼·布莱尔 Joan Blair
       弗兰·克朗茨 Fran Kranz
       史考蒂·莱文沃斯 Scotty Leavenworth
       乔治·布什 George Bush
       Michael Dukakis
       菲尔霍恩 Phil Hawn
       南希·朱沃南 Nancy Juvonen
       迪伊·奥斯汀·罗伯逊 Dee Austin Robertson
       Jack Truman
◎标  签 悬疑 | 科幻 | 美国 | 惊悚 | JakeGyllenhaal | 美国电影 | 2001 | 黑色
◎简  介


  丹尼?达可(杰克?盖伦霍尔 饰)得了精神疾病,某天晚  上他遭到莫名的呼唤,梦游,也是以回避了一架飞机坠落在他房间天花板上,这样匪夷所思的变乱。
  
  自此今后,他的生活就发生了变化,频频出现幻觉,他经常看见一个兔人弗兰克,后者告诉他天下将在28天6小时48分12秒今后扑灭;他获得了一本书,《时空观光奥义书》,对书中提到的时空观光、离线宇宙发生了激烈的猎奇。
  
  随着天下末日的邻近,杰克的生活越来约诡异,他新熟悉的女朋友和家人也被卷了进去。看来,杰克想实现拯救天下的愿望,需要支出更多的价格。
  1. Video
  2. ID                                       : 1
  3. ID in the original source medium         : 4113 (0x1011)
  4. Format                                   : HEVC
  5. Format/Info                              : High Efficiency Video Coding
  6. Format profile                           : Main [email protected]@High
  7. HDR format                               : SMPTE ST 2086, HDR10 compatible
  8. Codec ID                                 : V_MPEGH/ISO/HEVC
  9. Duration                                 : 2 h 13 min
  10. Bit rate                                 : 81.2 Mb/s
  11. Width                                    : 3 840 pixels
  12. Height                                   : 2 160 pixels
  13. Display aspect ratio                     : 16:9
  14. Frame rate mode                          : Constant
  15. Frame rate                               : 23.976 (24000/1001/189150) FPS
  16. Color space                              : YUV
  17. Chroma subsampling                       : 4:2:0 (Type 2)
  18. Bit depth                                : 10 bits
  19. Bits/(Pixel*Frame)                       : 0.408
  20. Stream size                              : 75.9 GiB (96%)
  21. Language                                 : English
  22. Default                                  : No
  23. Forced                                   : No
  24. Color range                              : Limited
  25. Color primaries                          : BT.2020
  26. Transfer characteristics                 : PQ
  27. Matrix coefficients                      : BT.2020 non-constant
  28. Mastering display color primaries        : BT.2020
  29. Mastering display luminance              : min: 0.0001 cd/m2, max: 1000 cd/m2
  30. Original source medium                   : Blu-ray

  31. Audio #1
  32. ID                                       : 2
  33. ID in the original source medium         : 4352 (0x1100)
  34. Format                                   : DTS XLL
  35. Format/Info                              : Digital Theater Systems
  36. Commercial name                          : DTS-HD Master Audio
  37. Codec ID                                 : A_DTS
  38. Duration                                 : 2 h 13 min
  39. Bit rate mode                            : Variable
  40. Bit rate                                 : 2 542 kb/s
  41. Channel(s)                               : 6 channels
  42. Channel layout                           : C L R Ls Rs LFE
  43. Sampling rate                            : 48.0 kHz
  44. Frame rate                               : 93.750 FPS (512 SPF)
  45. Bit depth                                : 24 bits
  46. Compression mode                         : Lossless
  47. Delay relative to video                  : 1 s 1 ms
  48. Stream size                              : 2.38 GiB (3%)
  49. Title                                    : DTS-HD MA 5.1
  50. Language                                 : English
  51. Default                                  : Yes
  52. Forced                                   : No
  53. Original source medium                   : Blu-ray

  54. Audio #2
  55. ID                                       : 3
  56. Format                                   : AC-3
  57. Format/Info                              : Audio Coding 3
  58. Commercial name                          : Dolby Digital
  59. Codec ID                                 : A_AC3
  60. Duration                                 : 2 h 13 min
  61. Bit rate mode                            : Constant
  62. Bit rate                                 : 640 kb/s
  63. Channel(s)                               : 6 channels
  64. Channel layout                           : L R C LFE Ls Rs
  65. Sampling rate                            : 48.0 kHz
  66. Frame rate                               : 31.250 FPS (1536 SPF)
  67. Compression mode                         : Lossy
  68. Stream size                              : 613 MiB (1%)
  69. Title                                    : DD 5.1
  70. Language                                 : English
  71. Service kind                             : Complete Main
  72. Default                                  : No
  73. Forced                                   : No

  74. Audio #3
  75. ID                                       : 4
  76. ID in the original source medium         : 4353 (0x1101)
  77. Format                                   : AC-3
  78. Format/Info                              : Audio Coding 3
  79. Commercial name                          : Dolby Digital
  80. Codec ID                                 : A_AC3
  81. Duration                                 : 2 h 13 min
  82. Bit rate mode                            : Constant
  83. Bit rate                                 : 192 kb/s
  84. Channel(s)                               : 2 channels
  85. Channel layout                           : L R
  86. Sampling rate                            : 48.0 kHz
  87. Frame rate                               : 31.250 FPS (1536 SPF)
  88. Compression mode                         : Lossy
  89. Delay relative to video                  : 1 s 1 ms
  90. Stream size                              : 184 MiB (0%)
  91. Title                                    : DD 2.0
  92. Language                                 : English
  93. Service kind                             : Complete Main
  94. Default                                  : No
  95. Forced                                   : No
  96. Original source medium                   : Blu-ray

  97. Text #1
  98. ID                                       : 5
  99. Format                                   : UTF-8
  100. Codec ID                                 : S_TEXT/UTF8
  101. Codec ID/Info                            : UTF-8 Plain Text
  102. Duration                                 : 2 h 10 min
  103. Bit rate                                 : 43 b/s
  104. Count of elements                        : 1045
  105. Stream size                              : 41.2 KiB (0%)
  106. Title                                    : English-SRT
  107. Language                                 : English
  108. Default                                  : Yes
  109. Forced                                   : No

  110. Text #2
  111. ID                                       : 6
  112. ID in the original source medium         : 4768 (0x12A0)
  113. Format                                   : PGS
  114. Muxing mode                              : zlib
  115. Codec ID                                 : S_HDMV/PGS
  116. Codec ID/Info                            : Picture based subtitle format used on BDs/HD-DVDs
  117. Duration                                 : 2 h 13 min
  118. Bit rate                                 : 26.1 kb/s
  119. Count of elements                        : 2204
  120. Stream size                              : 24.9 MiB (0%)
  121. Title                                    : English-PGS
  122. Language                                 : English
  123. Default                                  : No
  124. Forced                                   : No
  125. Original source medium                   : Blu-ray

  126. Menu
  127. 00:00:00.000                             : Chapter 01
  128. 00:09:38.035                             : Chapter 02
  129. 00:18:11.882                             : Chapter 03
  130. 00:27:07.792                             : Chapter 04
  131. 00:38:41.402                             : Chapter 05
  132. 00:50:58.096                             : Chapter 06
  133. 01:05:16.996                             : Chapter 07
  134. 01:18:40.090                             : Chapter 08
  135. 01:29:48.966                             : Chapter 09
  136. 01:44:39.064                             : Chapter 10
  137. 01:51:09.371                             : Chapter 11
  138. 02:03:17.431                             : Chapter 12
复制代码




                                       
                                       

                                       
                                       
                                       




回复

使用道具 举报

懒得打字嘛,点击右侧快捷回复 【右侧内容,后台自定义】
您需要登录后才可以回帖 登录 | 立即加入

本版积分规则

Archiver|小黑屋| 蓝光电影网 |网站地图

Copyright © 2021 Comsenz Inc. Powered by 蓝光电影网

蓝光电影网

本站内容由用户自主分享和转载自互联网,转载目的在于传递更多信息,并不代表本网赞同其观点和对其真实性负责。

如有侵权、违反国家法律政策行为,请联系我们,我们会第一时间及时清除和处理!

举报反馈邮箱:[email protected]

快速回复 返回顶部 返回列表