找回密码

蓝光电影网

查看: 110|回复: 0

[2160p] 全金属外壳/烈血焚城 Full.Metal.Jacket.1987.2160p.UHD.BluRay.x265.10bit.HDR.DTS-HD.MA.5.1-GUACAMOLE 37.08GB

[复制链接]
蓝光币
1082
发表于 2020-9-30 09:11:26 | 显示全部楼层 |阅读模式


◎译  名 全金属外壳/烈血焚城(港)/金甲战士/金甲军队(台)
◎片  名 Full Metal Jacket
◎年  代 1987
◎产  地 英国,美国
◎类  别 剧情 / 战争
◎语  言 英语,越南语
◎上映日期 1987-06-17
◎IMDb评分  8.3/10 from 660846 users
◎IMDb链接  https://www.imdb.com/title/tt0093058/
◎豆瓣评分 8.6/10 from 99529 users
◎豆瓣链接 https://movie.douban.com/subject/1300055/
◎片  长 116 分钟
◎导  演 斯坦利·库布里克 Stanley Kubrick
◎编  剧 斯坦利·库布里克 Stanley Kubrick / 迈克尔·海尔 Michael Herr / 古斯塔夫·哈斯福德 Gustav Hasford
◎主  演 马修·莫迪恩 Matthew Modine
       亚当·鲍德温 Adam Baldwin
       文森特·多诺费奥 Vincent D'Onofrio
       李·厄米 R. Lee Ermey
       道林·海伍德 Dorian Harewood
       艾利斯·霍华德 Arliss Howard
       埃德·欧罗斯 Ed O'Ross
       约翰·特里 John Terry
       蒂姆·科尔切里 Tim Colceri
       布鲁斯·博阿 Bruce Boa
       索尔·洛佩斯 Sal Lopez
       帕皮隆·苏索 Papillon Soo Soo
       马库斯·达米科 Marcus D'Amico
       菲利普·贝利 Philip Bailey
       斯蒂夫·哈德森 Steve Hudson
       David Parry
       克里斯·迈巴赫 Chris Maybach
       斯坦利·库布里克 Stanley Kubrick
       大卫·帕拉菲 David Palffy
       薇薇安·库布里克 Vivian Kubrick
◎标  签 战争 | 越战 | 美国 | 库布里克 | 斯坦利·库布里克 | 美国电影 | StanleyKubrick | 人性
◎简  介


  越战时代,美军大量征兵。多量年轻人应征参军,在新军营接管“残暴”的练习。“傻瓜”比尔活动神经不发财,经常出错而扳连一切人一路受罚。“小丑”(马修?莫迪恩 Matthew Modine 饰)受命帮助比尔,但比尔还是老出毛病,扳连其他人。大师忍无可忍下打了他一顿,比尔今后变得精神模糊,在新军营结业前夜枪杀教官后吞枪自杀。
  
  “小丑”随后分到了军队消息组。他在采访中看到了那时的同伴们都已经变得麻痹、残暴。一次,“小丑”随“牛仔”履利用命时,遭到越共狙击手伏击,“牛仔”亦不幸中弹身亡。众人经过一番搜索,击伤了狙击手。“小丑”发现狙击手竟是一个年轻少女。有人发起留下她挣扎而死,“小丑”在少女“杀了我”的请求声中,扣下了扳机。
◎获奖情况
  第60届奥斯卡金像奖 ?(1988)
  最好改编剧本(提名) 迈克尔·海尔?/?斯坦利·库布里克?/?古斯塔夫·哈斯福德
  
  第12届日本电影学院奖 ?(1989)
  最好外语片(提名)
  1. Video
  2. ID                                       : 1
  3. Format                                   : HEVC
  4. Format/Info                              : High Efficiency Video Coding
  5. Format profile                           : Main [email protected]@High
  6. HDR format                               : SMPTE ST 2086, HDR10 compatible
  7. Codec ID                                 : V_MPEGH/ISO/HEVC
  8. Duration                                 : 1 h 56 min
  9. Bit rate                                 : 42.2 Mb/s
  10. Width                                    : 3 840 pixels
  11. Height                                   : 2 160 pixels
  12. Display aspect ratio                     : 16:9
  13. Frame rate mode                          : Constant
  14. Frame rate                               : 23.976 (24000/1001/189150) FPS
  15. Color space                              : YUV
  16. Chroma subsampling                       : 4:2:0 (Type 2)
  17. Bit depth                                : 10 bits
  18. Bits/(Pixel*Frame)                       : 0.212
  19. Stream size                              : 34.4 GiB (94%)
  20. Writing library                          : x265 3.473ca1d7be377:[Windows][GCC 6.3.0][64 bit] 10bit
  21. Encoding settings                        : cpuid=1111039 / frame-threads=6 / numa-pools=16,16 / wpp / no-pmode / no-pme / no-psnr / no-ssim / log-level=2 / input-csp=1 / input-res=3840x2160 / interlace=0 / total-frames=167671 / level-idc=51 / high-tier=1 / uhd-bd=0 / ref=4 / no-allow-non-conformance / repeat-headers / annexb / aud / hrd / info / hash=0 / no-temporal-layers / no-open-gop / min-keyint=24 / keyint=240 / gop-lookahead=0 / bframes=4 / b-adapt=2 / b-pyramid / bframe-bias=0 / rc-lookahead=25 / lookahead-slices=4 / scenecut=40 / hist-scenecut=0 / radl=0 / no-splice / no-intra-refresh / ctu=64 / min-cu-size=8 / rect / no-amp / max-tu-size=32 / tu-inter-depth=1 / tu-intra-depth=1 / limit-tu=0 / rdoq-level=2 / dynamic-rd=0.00 / no-ssim-rd / signhide / no-tskip / nr-intra=0 / nr-inter=0 / no-constrained-intra / no-strong-intra-smoothing / max-merge=3 / limit-refs=3 / limit-modes / me=3 / subme=3 / merange=57 / temporal-mvp / no-frame-dup / no-hme / weightp / no-weightb / no-analyze-src-pics / deblock=-3:-3 / no-sao / no-sao-non-deblock / rd=4 / selective-sao=0 / no-early-skip / rskip / no-fast-intra / no-tskip-fast / no-cu-lossless / no-b-intra / no-splitrd-skip / rdpenalty=0 / psy-rd=2.00 / psy-rdoq=1.00 / no-rd-refine / no-lossless / cbqpoffs=0 / crqpoffs=0 / rc=crf / crf=20.0 / qcomp=0.60 / qpstep=4 / stats-write=0 / stats-read=0 / vbv-maxrate=160000 / vbv-bufsize=160000 / vbv-init=0.9 / crf-max=0.0 / crf-min=0.0 / ipratio=1.40 / pbratio=1.30 / aq-mode=2 / aq-strength=1.00 / cutree / zone-count=0 / no-strict-cbr / qg-size=32 / no-rc-grain / qpmax=69 / qpmin=0 / no-const-vbv / sar=1 / overscan=0 / videoformat=5 / range=0 / colorprim=9 / transfer=16 / colormatrix=9 / chromaloc=1 / chromaloc-top=2 / chromaloc-bottom=2 / display-window=0 / master-display=G(13250,34500)B(7500,3000)R(34000,16000)WP(15635,16450)L(40000000,50) / cll=1246,159 / min-luma=0 / max-luma=1023 / log2-max-poc-lsb=8 / vui-timing-info / vui-hrd-info / slices=1 / no-opt-qp-pps / no-opt-ref-list-length-pps / no-multi-pass-opt-rps / scenecut-bias=0.05 / hist-threshold=0.01 / no-opt-cu-delta-qp / no-aq-motion / hdr10 / hdr10-opt / no-dhdr10-opt / no-idr-recovery-sei / analysis-reuse-level=0 / analysis-save-reuse-level=0 / analysis-load-reuse-level=0 / scale-factor=0 / refine-intra=0 / refine-inter=0 / refine-mv=1 / refine-ctu-distortion=0 / no-limit-sao / ctu-info=0 / no-lowpass-dct / refine-analysis-type=0 / copy-pic=1 / max-ausize-factor=1.0 / no-dynamic-refine / no-single-sei / no-hevc-aq / no-svt / no-field / qp-adaptation-range=1.00 / no-scenecut-aware-qpconformance-window-offsets / right=0 / bottom=0 / decoder-max-rate=0
  22. Default                                  : Yes
  23. Forced                                   : No
  24. Color range                              : Limited
  25. Color primaries                          : BT.2020
  26. Transfer characteristics                 : PQ
  27. Matrix coefficients                      : BT.2020 non-constant
  28. Mastering display color primaries        : Display P3
  29. Mastering display luminance              : min: 0.0050 cd/m2, max: 4000 cd/m2
  30. Maximum Content Light Level              : 1246 cd/m2
  31. Maximum Frame-Average Light Level        : 159 cd/m2
  32. Audio #1
  33. ID                                       : 2
  34. Format                                   : DTS XLL
  35. Format/Info                              : Digital Theater Systems
  36. Commercial name                          : DTS-HD Master Audio
  37. Codec ID                                 : A_DTS
  38. Duration                                 : 1 h 56 min
  39. Bit rate mode                            : Variable
  40. Bit rate                                 : 2 297 kb/s
  41. Channel(s)                               : 6 channels
  42. Channel layout                           : C L R Ls Rs LFE
  43. Sampling rate                            : 48.0 kHz
  44. Frame rate                               : 93.750 FPS (512 SPF)
  45. Bit depth                                : 16 bits
  46. Compression mode                         : Lossless
  47. Stream size                              : 1.87 GiB (5%)
  48. Language                                 : English
  49. Default                                  : Yes
  50. Forced                                   : No
  51. Audio #2
  52. ID                                       : 3
  53. Format                                   : AC-3
  54. Format/Info                              : Audio Coding 3
  55. Commercial name                          : Dolby Digital
  56. Codec ID                                 : A_AC3
  57. Duration                                 : 1 h 56 min
  58. Bit rate mode                            : Constant
  59. Bit rate                                 : 192 kb/s
  60. Channel(s)                               : 1 channel
  61. Channel layout                           : C
  62. Sampling rate                            : 48.0 kHz
  63. Frame rate                               : 31.250 FPS (1536 SPF)
  64. Compression mode                         : Lossy
  65. Stream size                              : 160 MiB (0%)
  66. Title                                    : Original Mono Track
  67. Language                                 : English
  68. Service kind                             : Complete Main
  69. Default                                  : No
  70. Forced                                   : No
  71. Audio #3
  72. ID                                       : 4
  73. Format                                   : AAC LC
  74. Format/Info                              : Advanced Audio Codec Low Complexity
  75. Codec ID                                 : A_AAC-2
  76. Duration                                 : 1 h 56 min
  77. Bit rate                                 : 128 kb/s
  78. Channel(s)                               : 2 channels
  79. Channel layout                           : L R
  80. Sampling rate                            : 48.0 kHz
  81. Frame rate                               : 46.875 FPS (1024 SPF)
  82. Compression mode                         : Lossy
  83. Stream size                              : 107 MiB (0%)
  84. Title                                    : Commentary
  85. Language                                 : English
  86. Default                                  : No
  87. Forced                                   : No
  88. Text #1
  89. ID                                       : 5
  90. Format                                   : PGS
  91. Muxing mode                              : zlib
  92. Codec ID                                 : S_HDMV/PGS
  93. Codec ID/Info                            : Picture based subtitle format used on BDs/HD-DVDs
  94. Duration                                 : 1 h 55 min
  95. Bit rate                                 : 36.5 kb/s
  96. Count of elements                        : 3126
  97. Stream size                              : 30.2 MiB (0%)
  98. Title                                    : SDH
  99. Language                                 : English
  100. Default                                  : No
  101. Forced                                   : No
  102. Text #2
  103. ID                                       : 6
  104. Format                                   : PGS
  105. Muxing mode                              : zlib
  106. Codec ID                                 : S_HDMV/PGS
  107. Codec ID/Info                            : Picture based subtitle format used on BDs/HD-DVDs
  108. Duration                                 : 1 h 55 min
  109. Bit rate                                 : 32.4 kb/s
  110. Count of elements                        : 3218
  111. Stream size                              : 26.8 MiB (0%)
  112. Title                                    : SDH
  113. Language                                 : Italian
  114. Default                                  : No
  115. Forced                                   : No
  116. Text #3
  117. ID                                       : 7
  118. Format                                   : PGS
  119. Muxing mode                              : zlib
  120. Codec ID                                 : S_HDMV/PGS
  121. Codec ID/Info                            : Picture based subtitle format used on BDs/HD-DVDs
  122. Duration                                 : 1 h 55 min
  123. Bit rate                                 : 33.5 kb/s
  124. Count of elements                        : 3132
  125. Stream size                              : 27.7 MiB (0%)
  126. Title                                    : SDH
  127. Language                                 : German
  128. Default                                  : No
  129. Forced                                   : No
  130. Text #4
  131. ID                                       : 8
  132. Format                                   : PGS
  133. Muxing mode                              : zlib
  134. Codec ID                                 : S_HDMV/PGS
  135. Codec ID/Info                            : Picture based subtitle format used on BDs/HD-DVDs
  136. Duration                                 : 1 h 52 min
  137. Bit rate                                 : 23.6 kb/s
  138. Count of elements                        : 2194
  139. Stream size                              : 18.9 MiB (0%)
  140. Title                                    : SDH
  141. Language                                 : Japanese
  142. Default                                  : No
  143. Forced                                   : No
  144. Text #5
  145. ID                                       : 9
  146. Format                                   : PGS
  147. Muxing mode                              : zlib
  148. Codec ID                                 : S_HDMV/PGS
  149. Codec ID/Info                            : Picture based subtitle format used on BDs/HD-DVDs
  150. Duration                                 : 1 h 56 min
  151. Bit rate                                 : 25.7 kb/s
  152. Count of elements                        : 2218
  153. Stream size                              : 21.3 MiB (0%)
  154. Title                                    : SDH
  155. Language                                 : French
  156. Default                                  : No
  157. Forced                                   : No
  158. Text #6
  159. ID                                       : 10
  160. Format                                   : PGS
  161. Muxing mode                              : zlib
  162. Codec ID                                 : S_HDMV/PGS
  163. Codec ID/Info                            : Picture based subtitle format used on BDs/HD-DVDs
  164. Duration                                 : 1 h 52 min
  165. Bit rate                                 : 28.0 kb/s
  166. Count of elements                        : 2364
  167. Stream size                              : 22.5 MiB (0%)
  168. Title                                    : SDH
  169. Language                                 : Spanish
  170. Default                                  : No
  171. Forced                                   : No
  172. Text #7
  173. ID                                       : 11
  174. Format                                   : PGS
  175. Muxing mode                              : zlib
  176. Codec ID                                 : S_HDMV/PGS
  177. Codec ID/Info                            : Picture based subtitle format used on BDs/HD-DVDs
  178. Duration                                 : 1 h 50 min
  179. Bit rate                                 : 26.3 kb/s
  180. Count of elements                        : 2378
  181. Stream size                              : 20.9 MiB (0%)
  182. Title                                    : SDH
  183. Language                                 : Dutch
  184. Default                                  : No
  185. Forced                                   : No
  186. Text #8
  187. ID                                       : 12
  188. Format                                   : PGS
  189. Muxing mode                              : zlib
  190. Codec ID                                 : S_HDMV/PGS
  191. Codec ID/Info                            : Picture based subtitle format used on BDs/HD-DVDs
  192. Duration                                 : 1 h 56 min
  193. Bit rate                                 : 29.2 kb/s
  194. Count of elements                        : 2978
  195. Stream size                              : 24.2 MiB (0%)
  196. Title                                    : SDH
  197. Language                                 : Chinese
  198. Default                                  : No
  199. Forced                                   : No
  200. Text #9
  201. ID                                       : 13
  202. Format                                   : PGS
  203. Muxing mode                              : zlib
  204. Codec ID                                 : S_HDMV/PGS
  205. Codec ID/Info                            : Picture based subtitle format used on BDs/HD-DVDs
  206. Duration                                 : 1 h 52 min
  207. Bit rate                                 : 20.5 kb/s
  208. Count of elements                        : 2690
  209. Stream size                              : 16.5 MiB (0%)
  210. Title                                    : SDH
  211. Language                                 : Korean
  212. Default                                  : No
  213. Forced                                   : No
  214. Text #10
  215. ID                                       : 14
  216. Format                                   : PGS
  217. Muxing mode                              : zlib
  218. Codec ID                                 : S_HDMV/PGS
  219. Codec ID/Info                            : Picture based subtitle format used on BDs/HD-DVDs
  220. Duration                                 : 1 h 52 min
  221. Bit rate                                 : 32.1 kb/s
  222. Count of elements                        : 2968
  223. Stream size                              : 25.8 MiB (0%)
  224. Title                                    : SDH
  225. Language                                 : Spanish
  226. Default                                  : No
  227. Forced                                   : No
  228. Text #11
  229. ID                                       : 15
  230. Format                                   : PGS
  231. Muxing mode                              : zlib
  232. Codec ID                                 : S_HDMV/PGS
  233. Codec ID/Info                            : Picture based subtitle format used on BDs/HD-DVDs
  234. Duration                                 : 1 h 52 min
  235. Bit rate                                 : 17.8 kb/s
  236. Count of elements                        : 2374
  237. Stream size                              : 14.3 MiB (0%)
  238. Title                                    : SDH
  239. Language                                 : Arabic
  240. Default                                  : No
  241. Forced                                   : No
  242. Text #12
  243. ID                                       : 16
  244. Format                                   : PGS
  245. Muxing mode                              : zlib
  246. Codec ID                                 : S_HDMV/PGS
  247. Codec ID/Info                            : Picture based subtitle format used on BDs/HD-DVDs
  248. Duration                                 : 1 h 52 min
  249. Bit rate                                 : 27.0 kb/s
  250. Count of elements                        : 2810
  251. Stream size                              : 21.7 MiB (0%)
  252. Title                                    : SDH
  253. Language                                 : Czech
  254. Default                                  : No
  255. Forced                                   : No
  256. Text #13
  257. ID                                       : 17
  258. Format                                   : PGS
  259. Muxing mode                              : zlib
  260. Codec ID                                 : S_HDMV/PGS
  261. Codec ID/Info                            : Picture based subtitle format used on BDs/HD-DVDs
  262. Duration                                 : 1 h 56 min
  263. Bit rate                                 : 24.8 kb/s
  264. Count of elements                        : 2310
  265. Stream size                              : 20.6 MiB (0%)
  266. Title                                    : SDH
  267. Language                                 : Danish
  268. Default                                  : No
  269. Forced                                   : No
  270. Text #14
  271. ID                                       : 18
  272. Format                                   : PGS
  273. Muxing mode                              : zlib
  274. Codec ID                                 : S_HDMV/PGS
  275. Codec ID/Info                            : Picture based subtitle format used on BDs/HD-DVDs
  276. Duration                                 : 1 h 52 min
  277. Bit rate                                 : 22.1 kb/s
  278. Count of elements                        : 2302
  279. Stream size                              : 17.7 MiB (0%)
  280. Title                                    : SDH
  281. Language                                 : Finnish
  282. Default                                  : No
  283. Forced                                   : No
  284. Text #15
  285. ID                                       : 19
  286. Format                                   : PGS
  287. Muxing mode                              : zlib
  288. Codec ID                                 : S_HDMV/PGS
  289. Codec ID/Info                            : Picture based subtitle format used on BDs/HD-DVDs
  290. Duration                                 : 1 h 50 min
  291. Bit rate                                 : 24.7 kb/s
  292. Count of elements                        : 2244
  293. Stream size                              : 19.6 MiB (0%)
  294. Title                                    : SDH
  295. Language                                 : Norwegian
  296. Default                                  : No
  297. Forced                                   : No
  298. Text #16
  299. ID                                       : 20
  300. Format                                   : PGS
  301. Muxing mode                              : zlib
  302. Codec ID                                 : S_HDMV/PGS
  303. Codec ID/Info                            : Picture based subtitle format used on BDs/HD-DVDs
  304. Duration                                 : 1 h 50 min
  305. Bit rate                                 : 26.9 kb/s
  306. Count of elements                        : 2380
  307. Stream size                              : 21.3 MiB (0%)
  308. Title                                    : SDH
  309. Language                                 : Polish
  310. Default                                  : No
  311. Forced                                   : No
  312. Text #17
  313. ID                                       : 21
  314. Format                                   : PGS
  315. Muxing mode                              : zlib
  316. Codec ID                                 : S_HDMV/PGS
  317. Codec ID/Info                            : Picture based subtitle format used on BDs/HD-DVDs
  318. Duration                                 : 1 h 52 min
  319. Bit rate                                 : 24.8 kb/s
  320. Count of elements                        : 2436
  321. Stream size                              : 19.9 MiB (0%)
  322. Title                                    : SDH
  323. Language                                 : Romanian
  324. Default                                  : No
  325. Forced                                   : No
  326. Text #18
  327. ID                                       : 22
  328. Format                                   : PGS
  329. Muxing mode                              : zlib
  330. Codec ID                                 : S_HDMV/PGS
  331. Codec ID/Info                            : Picture based subtitle format used on BDs/HD-DVDs
  332. Duration                                 : 1 h 50 min
  333. Bit rate                                 : 24.2 kb/s
  334. Count of elements                        : 2244
  335. Stream size                              : 19.2 MiB (0%)
  336. Title                                    : SDH
  337. Language                                 : Swedish
  338. Default                                  : No
  339. Forced                                   : No
  340. Text #19
  341. ID                                       : 23
  342. Format                                   : PGS
  343. Muxing mode                              : zlib
  344. Codec ID                                 : S_HDMV/PGS
  345. Codec ID/Info                            : Picture based subtitle format used on BDs/HD-DVDs
  346. Duration                                 : 1 h 56 min
  347. Bit rate                                 : 26.4 kb/s
  348. Count of elements                        : 2932
  349. Stream size                              : 21.9 MiB (0%)
  350. Title                                    : SDH
  351. Language                                 : Thai
  352. Default                                  : No
  353. Forced                                   : No
  354. Menu
  355. 00:00:00.000                             : en:Kapitel 01
  356. 00:01:36.930                             : en:Kapitel 02
  357. 00:07:34.579                             : en:Kapitel 03
  358. 00:10:01.100                             : en:Kapitel 04
  359. 00:13:21.175                             : en:Kapitel 05
  360. 00:17:41.018                             : en:Kapitel 06
  361. 00:19:42.514                             : en:Kapitel 07
  362. 00:23:49.970                             : en:Kapitel 08
  363. 00:28:10.772                             : en:Kapitel 09
  364. 00:30:17.649                             : en:Kapitel 10
  365. 00:32:27.070                             : en:Kapitel 11
  366. 00:33:54.490                             : en:Kapitel 12
  367. 00:38:21.841                             : en:Kapitel 13
  368. 00:40:03.067                             : en:Kapitel 14
  369. 00:42:57.741                             : en:Kapitel 15
  370. 00:45:29.393                             : en:Kapitel 16
  371. 00:47:52.286                             : en:Kapitel 17
  372. 00:52:02.452                             : en:Kapitel 18
  373. 00:56:36.518                             : en:Kapitel 19
  374. 00:58:37.555                             : en:Kapitel 20
  375. 01:01:33.940                             : en:Kapitel 21
  376. 01:03:43.778                             : en:Kapitel 22
  377. 01:05:53.950                             : en:Kapitel 23
  378. 01:09:02.847                             : en:Kapitel 24
  379. 01:10:27.598                             : en:Kapitel 25
  380. 01:12:22.379                             : en:Kapitel 26
  381. 01:15:38.367                             : en:Kapitel 27
  382. 01:17:50.791                             : en:Kapitel 28
  383. 01:19:49.451                             : en:Kapitel 29
  384. 01:23:00.058                             : en:Kapitel 30
  385. 01:25:33.711                             : en:Kapitel 31
  386. 01:28:27.468                             : en:Kapitel 32
  387. 01:30:55.074                             : en:Kapitel 33
  388. 01:35:43.612                             : en:Kapitel 34
  389. 01:38:47.338                             : en:Kapitel 35
  390. 01:41:46.183                             : en:Kapitel 36
  391. 01:45:13.140                             : en:Kapitel 37
  392. 01:51:08.244                             : en:Kapitel 38
  393. 01:52:57.645                             : en:Kapitel 39
复制代码



                                       
                                       

                                       
                                       
                                       




回复

使用道具 举报

懒得打字嘛,点击右侧快捷回复 【右侧内容,后台自定义】
您需要登录后才可以回帖 登录 | 立即加入

本版积分规则

Archiver|小黑屋| 蓝光电影网 |网站地图

Copyright © 2021 Comsenz Inc. Powered by 蓝光电影网

蓝光电影网

本站内容由用户自主分享和转载自互联网,转载目的在于传递更多信息,并不代表本网赞同其观点和对其真实性负责。

如有侵权、违反国家法律政策行为,请联系我们,我们会第一时间及时清除和处理!

举报反馈邮箱:[email protected]

快速回复 返回顶部 返回列表