找回密码

蓝光电影网

查看: 81|回复: 0

[2160p] 阴间大法师 Beetlejuice.1988.2160p.UHD.BluRay.x265.10bit.HDR.TrueHD.7.1.Atmos-JustWatch 29.08GB

[复制链接]
蓝光币
1084
发表于 2020-9-28 17:01:54 | 显示全部楼层 |阅读模式


◎译  名 阴间大法师/Beetle Juice/哗鬼家属(港)/欢乐两重天/甲壳虫汁/笑串人鬼情
◎片  名 Beetlejuice
◎年  代 1988
◎产  地 美国
◎类  别 笑剧 / 奇异
◎语  言 英语
◎上映日期 1988-03-30(美国)
◎IMDb评分  7.5/10 from 252949 users
◎IMDb链接  https://www.imdb.com/title/tt0094721/
◎豆瓣评分 7.7/10 from 10896 users
◎豆瓣链接 https://movie.douban.com/subject/1293639/
◎片  长 92 分钟
◎导  演 蒂姆·波顿 Tim Burton
◎编  剧 迈克尔·麦克道尔 Michael McDowell / 拉瑞·威尔森 Larry Wilson / 沃伦·斯卡伦 Warren Skaaren / 蒂姆·波顿 Tim Burton
◎主  演 迈克尔·基顿 Michael Keaton
       薇诺娜·瑞德 Winona Ryder
       吉娜·戴维斯 Geena Davis
       亚历克·鲍德温 Alec Baldwin
       凯瑟琳·欧哈拉 Catherine O'Hara
       杰弗瑞·琼斯 Jeffrey Jones
       格伦·沙迪克斯 Glenn Shadix
       卡门·菲尔皮 Carmen Filpi
       西尔维娅·西德尼 Sylvia Sidney
       罗伯特·顾雷特 Robert Goulet
       迪克·卡维特 Dick Cavett
       阿德尔·卢茨 Adelle Lutz
       玛丽·斯奇塔姆 Maree Cheatham
       托尼·考克斯 Tony Cox
       杰克·安杰尔 Jack Angel
       Hugo Stanger
       Charles Schneider
       Patrice Martinez
       Simmy Bow
◎标  签 TimBurton | 美国 | 笑剧 | 奇异 | 魔幻 | 1988 | 美国电影 | 蒂姆·波顿
◎简  介


  经营着一家五金店的亚当(亚历克?鲍德温 Alec Baldwin 饰)与芭芭拉(吉娜?戴维斯 Geena Davis 饰)夫妻俩很是恩爱,两人虽然没有孩子,但把一切对相互的爱都倾注在打扮自己的家上。此日夫妻俩出行时发生车祸,双双死亡。成为鬼魂的两夫妻不忍分开自己的家,但阴阳相隔他们只能眼睁睁看的自己的家中搬来了新仆人。入住的迪兹与查尔斯一家将夫妻俩的屋子大举革新,亚当和芭芭拉想出闹鬼招数试图吓走迪兹一家却不起感化,反被迪兹爱好呆在黑黑暗的怪异女儿莉迪亚(薇诺娜?瑞德 Winona Ryder 饰)看穿,做鬼也可贵庄严。无计可施的夫妻俩依照亡灵手册指引,奉求流浪于阴间支流之外的大法师“甲壳虫汁”(迈克尔?基顿 Michael Keaton 饰)帮助他们夺回自己的家……
◎获奖情况
  第61届奥斯卡金像奖 ?(1989)
  最好化装 维·尼尔?/?史蒂夫·拉波特?/?罗伯特·肖特
  1. Video
  2. ID                                       : 1
  3. Format                                   : HEVC
  4. Format/Info                              : High Efficiency Video Coding
  5. Format profile                           : Main [email protected]@High
  6. HDR format                               : SMPTE ST 2086, HDR10 compatible
  7. Codec ID                                 : V_MPEGH/ISO/HEVC
  8. Duration                                 : 1 h 32 min
  9. Bit rate                                 : 40.6 Mb/s
  10. Width                                    : 3 840 pixels
  11. Height                                   : 2 076 pixels
  12. Display aspect ratio                     : 1.85:1
  13. Frame rate mode                          : Constant
  14. Frame rate                               : 23.976 (24000/1001/189150) FPS
  15. Color space                              : YUV
  16. Chroma subsampling                       : 4:2:0 (Type 2)
  17. Bit depth                                : 10 bits
  18. Bits/(Pixel*Frame)                       : 0.212
  19. Stream size                              : 26.1 GiB (91%)
  20. Writing library                          : x265 3.473ca1d7be377:[Windows][GCC 6.3.0][64 bit] 10bit
  21. Encoding settings                        : cpuid=1111039 / frame-threads=6 / numa-pools=16,16 / wpp / no-pmode / no-pme / no-psnr / no-ssim / log-level=2 / input-csp=1 / input-res=3840x2076 / interlace=0 / total-frames=132478 / level-idc=51 / high-tier=1 / uhd-bd=0 / ref=4 / no-allow-non-conformance / repeat-headers / annexb / aud / hrd / info / hash=0 / no-temporal-layers / no-open-gop / min-keyint=24 / keyint=240 / gop-lookahead=0 / bframes=4 / b-adapt=2 / b-pyramid / bframe-bias=0 / rc-lookahead=25 / lookahead-slices=4 / scenecut=40 / hist-scenecut=0 / radl=0 / no-splice / no-intra-refresh / ctu=64 / min-cu-size=8 / rect / no-amp / max-tu-size=32 / tu-inter-depth=1 / tu-intra-depth=1 / limit-tu=0 / rdoq-level=2 / dynamic-rd=0.00 / no-ssim-rd / signhide / no-tskip / nr-intra=0 / nr-inter=0 / no-constrained-intra / no-strong-intra-smoothing / max-merge=3 / limit-refs=3 / limit-modes / me=3 / subme=3 / merange=57 / temporal-mvp / no-frame-dup / no-hme / weightp / no-weightb / no-analyze-src-pics / deblock=-3:-3 / no-sao / no-sao-non-deblock / rd=4 / selective-sao=0 / no-early-skip / rskip / no-fast-intra / no-tskip-fast / no-cu-lossless / no-b-intra / no-splitrd-skip / rdpenalty=0 / psy-rd=2.00 / psy-rdoq=1.00 / no-rd-refine / no-lossless / cbqpoffs=0 / crqpoffs=0 / rc=crf / crf=15.5 / qcomp=0.60 / qpstep=4 / stats-write=0 / stats-read=0 / vbv-maxrate=160000 / vbv-bufsize=160000 / vbv-init=0.9 / crf-max=0.0 / crf-min=0.0 / ipratio=1.40 / pbratio=1.30 / aq-mode=2 / aq-strength=1.00 / cutree / zone-count=0 / no-strict-cbr / qg-size=32 / no-rc-grain / qpmax=69 / qpmin=0 / no-const-vbv / sar=1 / overscan=0 / videoformat=5 / range=0 / colorprim=9 / transfer=16 / colormatrix=9 / chromaloc=1 / chromaloc-top=2 / chromaloc-bottom=2 / display-window=0 / master-display=G(13250,34500)B(7500,3000)R(34000,16000)WP(15635,16450)L(40000000,50) / cll=3941,129 / min-luma=0 / max-luma=1023 / log2-max-poc-lsb=8 / vui-timing-info / vui-hrd-info / slices=1 / no-opt-qp-pps / no-opt-ref-list-length-pps / no-multi-pass-opt-rps / scenecut-bias=0.05 / hist-threshold=0.01 / no-opt-cu-delta-qp / no-aq-motion / hdr10 / hdr10-opt / no-dhdr10-opt / no-idr-recovery-sei / analysis-reuse-level=0 / analysis-save-reuse-level=0 / analysis-load-reuse-level=0 / scale-factor=0 / refine-intra=0 / refine-inter=0 / refine-mv=1 / refine-ctu-distortion=0 / no-limit-sao / ctu-info=0 / no-lowpass-dct / refine-analysis-type=0 / copy-pic=1 / max-ausize-factor=1.0 / no-dynamic-refine / no-single-sei / no-hevc-aq / no-svt / no-field / qp-adaptation-range=1.00 / no-scenecut-aware-qpconformance-window-offsets / right=0 / bottom=0 / decoder-max-rate=0
  22. Default                                  : Yes
  23. Forced                                   : No
  24. Color range                              : Limited
  25. Color primaries                          : BT.2020
  26. Transfer characteristics                 : PQ
  27. Matrix coefficients                      : BT.2020 non-constant
  28. Mastering display color primaries        : Display P3
  29. Mastering display luminance              : min: 0.0050 cd/m2, max: 4000 cd/m2
  30. Maximum Content Light Level              : 3941 cd/m2
  31. Maximum Frame-Average Light Level        : 129 cd/m2
  32. Audio #1
  33. ID                                       : 2
  34. Format                                   : MLP FBA 16-ch
  35. Format/Info                              : Meridian Lossless Packing FBA with 16-channel presentation
  36. Commercial name                          : Dolby TrueHD with Dolby Atmos
  37. Codec ID                                 : A_TRUEHD
  38. Duration                                 : 1 h 32 min
  39. Bit rate mode                            : Variable
  40. Bit rate                                 : 3 117 kb/s
  41. Maximum bit rate                         : 5 781 kb/s
  42. Channel(s)                               : 8 channels
  43. Channel layout                           : L R C LFE Ls Rs Lb Rb
  44. Sampling rate                            : 48.0 kHz
  45. Frame rate                               : 1 200.000 FPS (40 SPF)
  46. Compression mode                         : Lossless
  47. Stream size                              : 2.01 GiB (7%)
  48. Language                                 : English
  49. Default                                  : Yes
  50. Forced                                   : No
  51. Number of dynamic objects                : 11
  52. Bed channel count                        : 1 channel
  53. Bed channel configuration                : LFE
  54. Audio #2
  55. ID                                       : 3
  56. Format                                   : AC-3
  57. Format/Info                              : Audio Coding 3
  58. Commercial name                          : Dolby Digital
  59. Codec ID                                 : A_AC3
  60. Duration                                 : 1 h 32 min
  61. Bit rate mode                            : Constant
  62. Bit rate                                 : 640 kb/s
  63. Channel(s)                               : 6 channels
  64. Channel layout                           : L R C LFE Ls Rs
  65. Sampling rate                            : 48.0 kHz
  66. Frame rate                               : 31.250 FPS (1536 SPF)
  67. Compression mode                         : Lossy
  68. Stream size                              : 422 MiB (1%)
  69. Language                                 : English
  70. Service kind                             : Complete Main
  71. Default                                  : No
  72. Forced                                   : No
  73. Text #1
  74. ID                                       : 4
  75. Format                                   : PGS
  76. Muxing mode                              : zlib
  77. Codec ID                                 : S_HDMV/PGS
  78. Codec ID/Info                            : Picture based subtitle format used on BDs/HD-DVDs
  79. Duration                                 : 1 h 26 min
  80. Bit rate                                 : 40.7 kb/s
  81. Count of elements                        : 2402
  82. Stream size                              : 25.0 MiB (0%)
  83. Title                                    : SDH
  84. Language                                 : English
  85. Default                                  : No
  86. Forced                                   : No
  87. Text #2
  88. ID                                       : 5
  89. Format                                   : PGS
  90. Muxing mode                              : zlib
  91. Codec ID                                 : S_HDMV/PGS
  92. Codec ID/Info                            : Picture based subtitle format used on BDs/HD-DVDs
  93. Duration                                 : 1 h 20 min
  94. Bit rate                                 : 427 b/s
  95. Count of elements                        : 36
  96. Stream size                              : 252 KiB (0%)
  97. Title                                    : SDH
  98. Language                                 : Italian
  99. Default                                  : No
  100. Forced                                   : No
  101. Text #3
  102. ID                                       : 6
  103. Format                                   : PGS
  104. Muxing mode                              : zlib
  105. Codec ID                                 : S_HDMV/PGS
  106. Codec ID/Info                            : Picture based subtitle format used on BDs/HD-DVDs
  107. Duration                                 : 1 h 25 min
  108. Bit rate                                 : 26.9 kb/s
  109. Count of elements                        : 2227
  110. Stream size                              : 16.5 MiB (0%)
  111. Title                                    : SDH
  112. Language                                 : Japanese
  113. Default                                  : No
  114. Forced                                   : No
  115. Text #4
  116. ID                                       : 7
  117. Format                                   : PGS
  118. Muxing mode                              : zlib
  119. Codec ID                                 : S_HDMV/PGS
  120. Codec ID/Info                            : Picture based subtitle format used on BDs/HD-DVDs
  121. Duration                                 : 1 h 27 min
  122. Bit rate                                 : 35.3 kb/s
  123. Count of elements                        : 2394
  124. Stream size                              : 22.2 MiB (0%)
  125. Title                                    : SDH
  126. Language                                 : German
  127. Default                                  : No
  128. Forced                                   : No
  129. Text #5
  130. ID                                       : 8
  131. Format                                   : PGS
  132. Muxing mode                              : zlib
  133. Codec ID                                 : S_HDMV/PGS
  134. Codec ID/Info                            : Picture based subtitle format used on BDs/HD-DVDs
  135. Duration                                 : 1 h 27 min
  136. Bit rate                                 : 31.0 kb/s
  137. Count of elements                        : 1986
  138. Stream size                              : 19.5 MiB (0%)
  139. Title                                    : SDH
  140. Language                                 : Spanish
  141. Default                                  : No
  142. Forced                                   : No
  143. Text #6
  144. ID                                       : 9
  145. Format                                   : PGS
  146. Muxing mode                              : zlib
  147. Codec ID                                 : S_HDMV/PGS
  148. Codec ID/Info                            : Picture based subtitle format used on BDs/HD-DVDs
  149. Duration                                 : 1 h 25 min
  150. Bit rate                                 : 30.7 kb/s
  151. Count of elements                        : 1934
  152. Stream size                              : 18.8 MiB (0%)
  153. Title                                    : SDH
  154. Language                                 : Dutch
  155. Default                                  : No
  156. Forced                                   : No
  157. Text #7
  158. ID                                       : 10
  159. Format                                   : PGS
  160. Muxing mode                              : zlib
  161. Codec ID                                 : S_HDMV/PGS
  162. Codec ID/Info                            : Picture based subtitle format used on BDs/HD-DVDs
  163. Duration                                 : 1 h 31 min
  164. Bit rate                                 : 29.0 kb/s
  165. Count of elements                        : 2016
  166. Stream size                              : 19.0 MiB (0%)
  167. Title                                    : SDH
  168. Language                                 : Chinese
  169. Default                                  : No
  170. Forced                                   : No
  171. Text #8
  172. ID                                       : 11
  173. Format                                   : PGS
  174. Muxing mode                              : zlib
  175. Codec ID                                 : S_HDMV/PGS
  176. Codec ID/Info                            : Picture based subtitle format used on BDs/HD-DVDs
  177. Duration                                 : 1 h 27 min
  178. Bit rate                                 : 25.7 kb/s
  179. Count of elements                        : 2032
  180. Stream size                              : 16.1 MiB (0%)
  181. Title                                    : SDH
  182. Language                                 : Korean
  183. Default                                  : No
  184. Forced                                   : No
  185. Text #9
  186. ID                                       : 12
  187. Format                                   : PGS
  188. Muxing mode                              : zlib
  189. Codec ID                                 : S_HDMV/PGS
  190. Codec ID/Info                            : Picture based subtitle format used on BDs/HD-DVDs
  191. Duration                                 : 1 h 31 min
  192. Bit rate                                 : 29.6 kb/s
  193. Count of elements                        : 2020
  194. Stream size                              : 19.4 MiB (0%)
  195. Title                                    : SDH
  196. Language                                 : Spanish
  197. Default                                  : No
  198. Forced                                   : No
  199. Text #10
  200. ID                                       : 13
  201. Format                                   : PGS
  202. Muxing mode                              : zlib
  203. Codec ID                                 : S_HDMV/PGS
  204. Codec ID/Info                            : Picture based subtitle format used on BDs/HD-DVDs
  205. Duration                                 : 1 h 29 min
  206. Bit rate                                 : 31.0 kb/s
  207. Count of elements                        : 2020
  208. Stream size                              : 19.8 MiB (0%)
  209. Title                                    : SDH
  210. Language                                 : Czech
  211. Default                                  : No
  212. Forced                                   : No
  213. Text #11
  214. ID                                       : 14
  215. Format                                   : PGS
  216. Muxing mode                              : zlib
  217. Codec ID                                 : S_HDMV/PGS
  218. Codec ID/Info                            : Picture based subtitle format used on BDs/HD-DVDs
  219. Duration                                 : 1 h 25 min
  220. Bit rate                                 : 32.6 kb/s
  221. Count of elements                        : 2022
  222. Stream size                              : 19.9 MiB (0%)
  223. Title                                    : SDH
  224. Language                                 : Thai
  225. Default                                  : No
  226. Forced                                   : No
  227. Text #12
  228. ID                                       : 15
  229. Format                                   : PGS
  230. Muxing mode                              : zlib
  231. Codec ID                                 : S_HDMV/PGS
  232. Codec ID/Info                            : Picture based subtitle format used on BDs/HD-DVDs
  233. Duration                                 : 1 h 25 min
  234. Bit rate                                 : 28.7 kb/s
  235. Count of elements                        : 1958
  236. Stream size                              : 17.6 MiB (0%)
  237. Title                                    : SDH
  238. Language                                 : Danish
  239. Default                                  : No
  240. Forced                                   : No
  241. Text #13
  242. ID                                       : 16
  243. Format                                   : PGS
  244. Muxing mode                              : zlib
  245. Codec ID                                 : S_HDMV/PGS
  246. Codec ID/Info                            : Picture based subtitle format used on BDs/HD-DVDs
  247. Duration                                 : 1 h 25 min
  248. Bit rate                                 : 26.9 kb/s
  249. Count of elements                        : 1878
  250. Stream size                              : 16.4 MiB (0%)
  251. Title                                    : SDH
  252. Language                                 : Finnish
  253. Default                                  : No
  254. Forced                                   : No
  255. Text #14
  256. ID                                       : 17
  257. Format                                   : PGS
  258. Muxing mode                              : zlib
  259. Codec ID                                 : S_HDMV/PGS
  260. Codec ID/Info                            : Picture based subtitle format used on BDs/HD-DVDs
  261. Duration                                 : 1 h 25 min
  262. Bit rate                                 : 28.3 kb/s
  263. Count of elements                        : 1988
  264. Stream size                              : 17.3 MiB (0%)
  265. Title                                    : SDH
  266. Language                                 : Norwegian
  267. Default                                  : No
  268. Forced                                   : No
  269. Text #15
  270. ID                                       : 18
  271. Format                                   : PGS
  272. Muxing mode                              : zlib
  273. Codec ID                                 : S_HDMV/PGS
  274. Codec ID/Info                            : Picture based subtitle format used on BDs/HD-DVDs
  275. Duration                                 : 1 h 25 min
  276. Bit rate                                 : 26.1 kb/s
  277. Count of elements                        : 1918
  278. Stream size                              : 16.0 MiB (0%)
  279. Title                                    : SDH
  280. Language                                 : Swedish
  281. Default                                  : No
  282. Forced                                   : No
复制代码



                                       
                                       

                                       
                                       
                                       




回复

使用道具 举报

懒得打字嘛,点击右侧快捷回复 【右侧内容,后台自定义】
您需要登录后才可以回帖 登录 | 立即加入

本版积分规则

Archiver|小黑屋| 蓝光电影网 |网站地图

Copyright © 2021 Comsenz Inc. Powered by 蓝光电影网

蓝光电影网

本站内容由用户自主分享和转载自互联网,转载目的在于传递更多信息,并不代表本网赞同其观点和对其真实性负责。

如有侵权、违反国家法律政策行为,请联系我们,我们会第一时间及时清除和处理!

举报反馈邮箱:[email protected]

快速回复 返回顶部 返回列表